IOS ffmpeg 如何同步音视频流与字幕流 1C

如题
想做字幕控制视频进度
补充问下 SDL2库有没有人编译通过
想和ffmpeg搭配一起播放视频
如果大家有别的库可用的希望也能分享
谢谢
再补充问下
要求ffmpeg支持大多数视频和字幕的编解码
需要如何设置configure
谢谢

1个回答

Csdn user default icon
上传中...
上传图片
插入图片
抄袭、复制答案,以达到刷声望分或其他目的的行为,在CSDN问答是严格禁止的,一经发现立刻封号。是时候展现真正的技术了!
其他相关推荐
FFMPEG合并两个视频流
各位大虾,FFMPEG能否在一个视频流A中嵌入另一个视频流B,并将两个流同时推送到流服务器,以达到类似于附件图片效果: 补充:**我不会C++,只会JAVA,能否不用编码,只用命令就可以搞定啊** ![图片说明](https://img-ask.csdn.net/upload/201602/23/1456218989_832002.png)
iOS开发视频解码库FFmpeg
本人做刚开始做iOS,对于使用过的第三方类、库,基本知道了解那种模式,包含头文件,然后有现成能的方法去调用。但是最近开始接触视频方面的,研究了两天,始终不理解FFmpeg是什么,像是第三方库吧,但是没有看到具体实在可调用的方法,并且在网上搜到的Demo,似乎配合着第三方视频播放类去使用,但是在Demo中没发现他们之间关联的部分,不理解FFmpeg到底是怎么发挥作用的。请教一下这FFmpeg是怎么使用的,原理。
ffmpeg推流音频文件,ffplay拉流无法播放
1, 在做音频推流的时候,使用 ffmpeg -re -i waving_flag.mp3 -c copy -f mpegts udp://224.0.1.1:8090 推流. ffplay -f mpegts udp://224.0.1.1:8090 -fflags nobuffer 拉流播放没有问题. 2, 但是在使用 ffmpeg -re -i waving_flag.wav -c copy -f mpegts udp://224.0.1.1:8090 推流时 ffplay -f mpegts udp://224.0.1.1:8090 -fflags nobuffer 拉流就播放不了. 提示Failed to open file 'udp://224.0.1.1:8090' or configure filtergraph 把推流指令中的 -c copy 给去掉是可以正常拉流播放了. 3, 在使用我自己仿照雷博主使用ffmpeg SDK写的一个推流代码, 在输入为MP3格式文件时,能正常推出来, 使用 ffplay -f mpegts udp://224.0.1.1:8090 -fflags nobuffer 拉流是没有问题的 但是在选择输入音频格式的文件为aac时, 推流是正常的,可拉流这边就提示: Header missing Could not find codec parameters for stream 0 (Audio: mp3 ([3][0][0][0] / 0x0003), 0 channels, s16p): unspecified frame size Consider increasing the value for the 'analyzeduration' and 'probesize' options Input #0, mpegts, from 'udp://224.0.1.1:8090': Duration: N/A, start: 0.000000, bitrate: N/A Program 1 Metadata: service_name : Service01 service_provider: FFmpeg Stream #0:0[0x100]: Audio: mp3 ([3][0][0][0] / 0x0003), 0 channels, s16p Failed to open file 'udp://224.0.1.1:8090' or configure filtergraph 这里显示 Audio: mp3 可我明明输入的是aac 格式的文件. 为什么使用指令的时候,可以正常拉流播放, 在不加-c copy时, ffmpeg库内部做了哪些处理, 我仿照雷博主的这个推流代码应该怎么去改进,才能让他兼容更多的音频格式? 我想法就是: 是不是将输入的文件进行解码后重定向再统一编码为MP3格式推流出去吗?
FFmpeg推送rtmp视频流到nginx的问题
FFmpeg将网络摄像机的rtsp视频流转换成rtmp流,然后推送rtmp视频流到nginx上面,然后使用手机播放hls的视频流。 在期间遇到一些问题,总是丢包,我截了个图,请大家帮忙看看是不是我在使用ffmpeg时参数设置的不对啊。 我使用的命令: ffmpeg -i rtsp://admin:12345@172.27.35.56 -vcodec copy -acodec aac -ar 44100 -strict -2 -ac 1 -f flv -s 640x480 rtmp://172.27.35.2:1935/hls/test2 ![图片说明](https://img-ask.csdn.net/upload/201502/03/1422933381_314422.jpg)
ffmpeg解码h264视频流的问题
先上代码: int VideoDecoder_Decode(X264_H dwHandle, uint8_t *pDataIn, int nInSize, uint8_t *pDataOut, int nOutSize, int *nWidth, int *nHeight)//nOutSize { X264_Decoder_Handle *pHandle; //*i_frame_size = 0; if (dwHandle == 0) { return -1; } pHandle = (X264_Decoder_Handle *)dwHandle; //pHandle->inbuf_ptr = pDataIn; //pHandle->inSize = nInSize; pHandle->avpkt.size = nInSize; pHandle->avpkt.data = pDataIn; while (pHandle->avpkt.size > 0) { //LOGI("avcodec_decode_video2\n"); //pHandle->outSize = avcodec_decode_video2(pHandle->c, pHandle->picture, &pHandle->got_picture, // pHandle->inbuf_ptr, pHandle->inSize); pHandle->comsumedSize = avcodec_decode_video2(pHandle->c, pHandle->picture, &pHandle->got_picture, &(pHandle->avpkt)); if (pHandle->comsumedSize < 0) { //LOGE("Error while decoding frame InSize = %d comsumedSize = %d\n", pHandle->avpkt.size,pHandle->comsumedSize); //exit(1); printf("222222222222222222222222222222222222222222222222222222222222222"); return -1; } if (pHandle->got_picture) { //printf("saving frame %3d\n", pHandle->frame); fflush(stdout); /* the picture is allocated by the decoder. no need to free it */ *nWidth = pHandle->c->width; *nHeight = pHandle->c->height; if(nOutSize >= (pHandle->c->width)*(pHandle->c->height)*3/2) { pgm_save2(pHandle->picture->data[0], pHandle->picture->linesize[0],pHandle->c->width, pHandle->c->height,pDataOut); pgm_save2(pHandle->picture->data[1], pHandle->picture->linesize[1],pHandle->c->width/2, pHandle->c->height/2,pDataOut +pHandle->c->width * pHandle->c->height); pgm_save2(pHandle->picture->data[2], pHandle->picture->linesize[2],pHandle->c->width/2, pHandle->c->height/2,pDataOut +pHandle->c->width * pHandle->c->height*5/4); } pHandle->frame_count++; } if (pHandle->avpkt.data) { pHandle->avpkt.size -= pHandle->comsumedSize; pHandle->avpkt.data += pHandle->comsumedSize; } } printf("nOutSize: %d (pHandle->c->width)*(pHandle->c->height)*3/2: %d",nOutSize,(pHandle->c->width)*(pHandle->c->height)*3/2); if(nOutSize < (pHandle->c->width)*(pHandle->c->height)*3/2) { printf("33333333333333333333333333333333333333333333333333333333333333"); // printf("nOutSize: %d (pHandle->c->width)*(pHandle->c->height)*3/2: %d",nOutSize,(pHandle->c->width)*(pHandle->c->height)*3/2); return -1; } return 0; } 用ffmpeg支持64的解码库解码时,这段解码代码在iphone5及以下(32位设备)解码时没问题,但在iphone5以上设备(64位设备)上解码时在以下代码处崩溃了,有人说是地址不匹配: pHandle->avpkt.size = nInSize; pHandle->avpkt.data = pDataIn; 崩溃信息如下: ![图片说明](https://img-ask.csdn.net/upload/201508/05/1438745263_605799.png) 到底是什么原因呢,又该怎么解决,哪位大神能够帮忙解答一下,不胜感激....
IOS给定URL用ffmpeg压缩视频的代码
各位大神,谁能提供给定一个视频URL如何用ffmpeg压缩视频的代码?
ffmpeg间隔保存视频文件
ffmpeg获取摄像头视频流保存为视频文件,每隔一个小时保存为一个文件,连续保存六 个小时后保存的视频文件没有画面
FFMPEG如何支持通过open_input的方式获取G711音频码流。
需求:使用FFMPEG解码海康摄像头的H.264视频编码+G711音频编码的码流。 问题:在使用FFMPEG的open input 方法时可以获取视频stream但无法获取音频stream, 查得资料好像是FFMPEG的默认编译库支持H.264+AAC的封装而不支持H.264+G711, 是否有办法使FFMPEG可以通过open input和find stream的方式支持H.264+G711的码流呢?
如何使用ffmpeg的函数转发rtsp的视频流到组播组,不是命令行方式,或者有其他方式也行?
如何使用ffmpeg库中的函数从流媒体服务器获取rtsp流,然后将该rtsp流转发到一个组播组?金币不多见谅
ffmpeg如何快速裁剪视频?
如题,如何使用FFmpeg快速的裁剪视频到指定的宽高,频率?-y -i /Video/output11.mp4 -acodec copy -vf scale=853:480,crop=480:480:280:0 -s 480x480 /Video/output1.mp4 这个命令怎么优化才能更快?
通过pipe使用ffmpeg推流视频流处理出错
![图片说明](https://img-ask.csdn.net/upload/201903/30/1553946177_807326.jpg) ``` command = ['ffmpeg', '-use_wallclock_as_timestamps', '1', '-y', '-f', 'rawvideo', '-vcodec', 'rawvideo', '-pix_fmt', 'bgr24', '-s', '640*480', '-r', '9', '-i', '-', '-c:v', 'libx264', '-pix_fmt', 'yuv420p', '-preset', 'ultrafast', '-f', 'hls', '-hls_list_size', '9', '-hls_time','2', '/ts/pla.m3u8'] proc = sp.Popen(command, stdin=sp.PIPE) ··· ··· vid = cv2.VideoCapture(0) ··· return_value, frame = vid.read() ··· pipe_frame = frame[:, :, ::-1] proc.stdin.write(pipe_frame.tostring()) ```
C#using AForge.Video.FFMPEG;能录制视频但没有声音。
C#using AForge.Video.FFMPEG;能录制视频但没有声音。
ffmpeg压缩视频文件CPU占用率大
ffmpeg压缩视频流(windows下)总是使得CPU达到90%以上,请问有什么别的方法来压缩?
android上 用ffmpeg解码rtp组播流
android上 用ffmpeg解码rtp组播流,avformat_find_stream_info这一步总是失败,错误信息是 Connection timed out,同样的代码linux下测试是没问题的,移植到android后就不行,这是为什么呢?
ffmpeg获取直播流处理
请问各位前辈,ffmpeg获取直播流封装成.mpg格式没有图像,但是有声音,而封装成.ts格式有图像,没有声音,该怎么处理?谢谢!
qt通过显示ffmpeg解码出的图像
已经实现ffmpeg解码http视频流为一帧一帧是图像。 想通过OpenGL 或者 QML 或者 还有其他什么办法可以把这些帧图像显示出(视频帧率:30fps,大小:1280x720)
ffmpeg解码部分视频失败
我有一些视频,能够用播放器播放,但是用ffmpeg-3.4解不出来。 准确的说是用我自己编的ffmpeg库解不出来,用公司同样ffmpeg-3.4就能解出来。 但是我的编译应该没有大问题,因为大部分视频我都能够顺利解码的 视频解码错误时报: ``` [mov,mp4,m4a,3gp,3g2,mj2 @ 0x31b7120] STSC entry 1 is invalid (first=12 count=0 id=1) [mov,mp4,m4a,3gp,3g2,mj2 @ 0x31b7120] stream 0, contradictionary STSC and STCO [mov,mp4,m4a,3gp,3g2,mj2 @ 0x31b7120] error reading header ``` 正常解码出来的信息是: ``` Input #0, mov,mp4,m4a,3gp,3g2,mj2, from 'fail.mp4': Metadata: major_brand : mp42 minor_version : 0 compatible_brands: mp42isom creation_time : 2019-08-06T16:42:23.000000Z Duration: 00:00:10.89, start: 0.000000, bitrate: N/A Stream #0:0(und): Video: h264 (Baseline) (avc1 / 0x31637661), yuv420p, 1280x720, 2815 kb/s, 25.66 fps, 25.64 tbr, 1k tbn, 51.31 tbc (default) Metadata: creation_time : 2019-08-06T16:42:24.000000Z handler_name : encoder : VC Coding ``` 我的编译选项: ``` ./configure --prefix=./ --bindir=bin/ffmpeg --incdir=include/ffmpeg --libdir=lib64/ffmpeg --disable-x86asm --arch=x86_64 --optflags='-O2 -g -pipe -Wall -Wp,-D_FORTIFY_SOURCE=2 -fexceptions -fstack-protector-strong --param=ssp-buffer-size=4 -grecord-gcc-switches -m64 -mtune=generic' --extra-ldflags='-Wl,-z,relro' --enable-libx264 --enable-libx265 --enable-avfilter --enable-pthreads --enable-shared --enable-gpl --disable-debug --enable-cuda --enable-cuvid --enable-nvenc --enable-nonfree --enable-libnpp --extra-cflags=-I/usr/local/cuda-8.0/include --extra-ldflags=-L/usr/local/cuda-8.0/lib64 ``` 怀疑是我编译的时候有什么选项没有开,或者有人告诉我这个视频有什么特殊的地方需要我加特殊的编解码器吗?
ffmpeg转换视频格式问题
使用java调用ffmpeg转换多个视频,会同时把多个视频进行转,这样会导致CPU使用率达到100%,如果同时转换的视频到达某一数目,电脑就会卡死。 本人尝试过实时获取输出流来查看转换状态,代码如下: Process process = Runtime.getRuntime().exec(cmd); final BufferedReader br = new BufferedReader(new InputStreamReader(process.getInputStream())); String s = null; while((s=br.readLine()) != null){ System.out.println(s); } 但,当执行到s=br.readLine()方法时会卡着不动了。 请问有大神知道如何控制ffmpeg转换完一个视频后,再进行第二个视频的转换。
ffmpeg向直播流中插入音频问题
我想使用`ffmpeg`将`rtsp`和`blank.aac`混合在一起然后推到流服务器中,但是因为`blank.aac`有长度的限制,推流一段时间后`blank.aac`会被读完,我要怎么将`blank.aac`无限循环呢?
Java学习的正确打开方式
在博主认为,对于入门级学习java的最佳学习方法莫过于视频+博客+书籍+总结,前三者博主将淋漓尽致地挥毫于这篇博客文章中,至于总结在于个人,实际上越到后面你会发现学习的最好方式就是阅读参考官方文档其次就是国内的书籍,博客次之,这又是一个层次了,这里暂时不提后面再谈。博主将为各位入门java保驾护航,各位只管冲鸭!!!上天是公平的,只要不辜负时间,时间自然不会辜负你。 何谓学习?博主所理解的学习,它
大学四年自学走来,这些私藏的实用工具/学习网站我贡献出来了
大学四年,看课本是不可能一直看课本的了,对于学习,特别是自学,善于搜索网上的一些资源来辅助,还是非常有必要的,下面我就把这几年私藏的各种资源,网站贡献出来给你们。主要有:电子书搜索、实用工具、在线视频学习网站、非视频学习网站、软件下载、面试/求职必备网站。 注意:文中提到的所有资源,文末我都给你整理好了,你们只管拿去,如果觉得不错,转发、分享就是最大的支持了。 一、PDF搜索网站推荐 对于大部
linux系列之常用运维命令整理笔录
本博客记录工作中需要的linux运维命令,大学时候开始接触linux,会一些基本操作,可是都没有整理起来,加上是做开发,不做运维,有些命令忘记了,所以现在整理成博客,当然vi,文件操作等就不介绍了,慢慢积累一些其它拓展的命令,博客不定时更新 顺便拉下票,我在参加csdn博客之星竞选,欢迎投票支持,每个QQ或者微信每天都可以投5票,扫二维码即可,http://m234140.nofollow.ax.
Vue + Spring Boot 项目实战(十四):用户认证方案与完善的访问拦截
本篇文章主要讲解 token、session 等用户认证方案的区别并分析常见误区,以及如何通过前后端的配合实现完善的访问拦截,为下一步权限控制的实现打下基础。
比特币原理详解
一、什么是比特币 比特币是一种电子货币,是一种基于密码学的货币,在2008年11月1日由中本聪发表比特币白皮书,文中提出了一种去中心化的电子记账系统,我们平时的电子现金是银行来记账,因为银行的背后是国家信用。去中心化电子记账系统是参与者共同记账。比特币可以防止主权危机、信用风险。其好处不多做赘述,这一层面介绍的文章很多,本文主要从更深层的技术原理角度进行介绍。 二、问题引入  假设现有4个人
程序员接私活怎样防止做完了不给钱?
首先跟大家说明一点,我们做 IT 类的外包开发,是非标品开发,所以很有可能在开发过程中会有这样那样的需求修改,而这种需求修改很容易造成扯皮,进而影响到费用支付,甚至出现做完了项目收不到钱的情况。 那么,怎么保证自己的薪酬安全呢? 我们在开工前,一定要做好一些证据方面的准备(也就是“讨薪”的理论依据),这其中最重要的就是需求文档和验收标准。一定要让需求方提供这两个文档资料作为开发的基础。之后开发
网页实现一个简单的音乐播放器(大佬别看。(⊙﹏⊙))
今天闲着无事,就想写点东西。然后听了下歌,就打算写个播放器。 于是乎用h5 audio的加上js简单的播放器完工了。 欢迎 改进 留言。 演示地点跳到演示地点 html代码如下`&lt;!DOCTYPE html&gt; &lt;html&gt; &lt;head&gt; &lt;title&gt;music&lt;/title&gt; &lt;meta charset="utf-8"&gt
Python十大装B语法
Python 是一种代表简单思想的语言,其语法相对简单,很容易上手。不过,如果就此小视 Python 语法的精妙和深邃,那就大错特错了。本文精心筛选了最能展现 Python 语法之精妙的十个知识点,并附上详细的实例代码。如能在实战中融会贯通、灵活使用,必将使代码更为精炼、高效,同时也会极大提升代码B格,使之看上去更老练,读起来更优雅。 1. for - else 什么?不是 if 和 else 才
数据库优化 - SQL优化
前面一篇文章从实例的角度进行数据库优化,通过配置一些参数让数据库性能达到最优。但是一些“不好”的SQL也会导致数据库查询变慢,影响业务流程。本文从SQL角度进行数据库优化,提升SQL运行效率。 判断问题SQL 判断SQL是否有问题时可以通过两个表象进行判断: 系统级别表象 CPU消耗严重 IO等待严重 页面响应时间过长
2019年11月中国大陆编程语言排行榜
2019年11月2日,我统计了某招聘网站,获得有效程序员招聘数据9万条。针对招聘信息,提取编程语言关键字,并统计如下: 编程语言比例 rank pl_ percentage 1 java 33.62% 2 c/c++ 16.42% 3 c_sharp 12.82% 4 javascript 12.31% 5 python 7.93% 6 go 7.25% 7
通俗易懂地给女朋友讲:线程池的内部原理
餐厅的约会 餐盘在灯光的照耀下格外晶莹洁白,女朋友拿起红酒杯轻轻地抿了一小口,对我说:“经常听你说线程池,到底线程池到底是个什么原理?”我楞了一下,心里想女朋友今天是怎么了,怎么突然问出这么专业的问题,但做为一个专业人士在女朋友面前也不能露怯啊,想了一下便说:“我先给你讲讲我前同事老王的故事吧!” 大龄程序员老王 老王是一个已经北漂十多年的程序员,岁数大了,加班加不动了,升迁也无望,于是拿着手里
经典算法(5)杨辉三角
写在前面: 我是 扬帆向海,这个昵称来源于我的名字以及女朋友的名字。我热爱技术、热爱开源、热爱编程。技术是开源的、知识是共享的。 这博客是对自己学习的一点点总结及记录,如果您对 Java、算法 感兴趣,可以关注我的动态,我们一起学习。 用知识改变命运,让我们的家人过上更好的生活。 目录一、杨辉三角的介绍二、杨辉三角的算法思想三、代码实现1.第一种写法2.第二种写法 一、杨辉三角的介绍 百度
腾讯算法面试题:64匹马8个跑道需要多少轮才能选出最快的四匹?
昨天,有网友私信我,说去阿里面试,彻底的被打击到了。问了为什么网上大量使用ThreadLocal的源码都会加上private static?他被难住了,因为他从来都没有考虑过这个问题。无独有偶,今天笔者又发现有网友吐槽了一道腾讯的面试题,我们一起来看看。 腾讯算法面试题:64匹马8个跑道需要多少轮才能选出最快的四匹? 在互联网职场论坛,一名程序员发帖求助到。二面腾讯,其中一个算法题:64匹
面试官:你连RESTful都不知道我怎么敢要你?
面试官:了解RESTful吗? 我:听说过。 面试官:那什么是RESTful? 我:就是用起来很规范,挺好的 面试官:是RESTful挺好的,还是自我感觉挺好的 我:都挺好的。 面试官:… 把门关上。 我:… 要干嘛?先关上再说。 面试官:我说出去把门关上。 我:what ?,夺门而去 文章目录01 前言02 RESTful的来源03 RESTful6大原则1. C-S架构2. 无状态3.统一的接
SQL-小白最佳入门sql查询一
一 说明 如果是初学者,建议去网上寻找安装Mysql的文章安装,以及使用navicat连接数据库,以后的示例基本是使用mysql数据库管理系统; 二 准备前提 需要建立一张学生表,列分别是id,名称,年龄,学生信息;本示例中文章篇幅原因SQL注释略; 建表语句: CREATE TABLE `student` ( `id` int(11) NOT NULL AUTO_INCREMENT, `
项目中的if else太多了,该怎么重构?
介绍 最近跟着公司的大佬开发了一款IM系统,类似QQ和微信哈,就是聊天软件。我们有一部分业务逻辑是这样的 if (msgType = "文本") { // dosomething } else if(msgType = "图片") { // doshomething } else if(msgType = "视频") { // doshomething } else { // dosho
漫话:什么是平衡(AVL)树?这应该是把AVL树讲的最好的文章了
这篇文章通过对话的形式,由浅入深带你读懂 AVL 树,看完让你保证理解 AVL 树的各种操作,如果觉得不错,别吝啬你的赞哦。 1、若它的左子树不为空,则左子树上所有的节点值都小于它的根节点值。 2、若它的右子树不为空,则右子树上所有的节点值均大于它的根节点值。 3、它的左右子树也分别可以充当为二叉查找树。 例如: 例如,我现在想要查找数值为14的节点。由于二叉查找树的特性,我们可...
“狗屁不通文章生成器”登顶GitHub热榜,分分钟写出万字形式主义大作
一、垃圾文字生成器介绍 最近在浏览GitHub的时候,发现了这样一个骨骼清奇的雷人项目,而且热度还特别高。 项目中文名:狗屁不通文章生成器 项目英文名:BullshitGenerator 根据作者的介绍,他是偶尔需要一些中文文字用于GUI开发时测试文本渲染,因此开发了这个废话生成器。但由于生成的废话实在是太过富于哲理,所以最近已经被小伙伴们给玩坏了。 他的文风可能是这样的: 你发现,
程序员:我终于知道post和get的区别
IT界知名的程序员曾说:对于那些月薪三万以下,自称IT工程师的码农们,其实我们从来没有把他们归为我们IT工程师的队伍。他们虽然总是以IT工程师自居,但只是他们一厢情愿罢了。 此话一出,不知激起了多少(码农)程序员的愤怒,却又无可奈何,于是码农问程序员。 码农:你知道get和post请求到底有什么区别? 程序员:你看这篇就知道了。 码农:你月薪三万了? 程序员:嗯。 码农:你是怎么做到的? 程序员:
《程序人生》系列-这个程序员只用了20行代码就拿了冠军
你知道的越多,你不知道的越多 点赞再看,养成习惯GitHub上已经开源https://github.com/JavaFamily,有一线大厂面试点脑图,欢迎Star和完善 前言 这一期不算《吊打面试官》系列的,所有没前言我直接开始。 絮叨 本来应该是没有这期的,看过我上期的小伙伴应该是知道的嘛,双十一比较忙嘛,要值班又要去帮忙拍摄年会的视频素材,还得搞个程序员一天的Vlog,还要写BU
开源并不是你认为的那些事
点击上方蓝字 关注我们开源之道导读所以 ————想要理清开源是什么?先要厘清开源不是什么,名正言顺是句中国的古代成语,概念本身的理解非常之重要。大部分生物多样性的起源,...
加快推动区块链技术和产业创新发展,2019可信区块链峰会在京召开
      11月8日,由中国信息通信研究院、中国通信标准化协会、中国互联网协会、可信区块链推进计划联合主办,科技行者协办的2019可信区块链峰会将在北京悠唐皇冠假日酒店开幕。   区块链技术被认为是继蒸汽机、电力、互联网之后,下一代颠覆性的核心技术。如果说蒸汽机释放了人类的生产力,电力解决了人类基本的生活需求,互联网彻底改变了信息传递的方式,区块链作为构造信任的技术有重要的价值。   1
程序员把地府后台管理系统做出来了,还有3.0版本!12月7号最新消息:已在开发中有github地址
第一幕:缘起 听说阎王爷要做个生死簿后台管理系统,我们派去了一个程序员…… 996程序员做的梦: 第一场:团队招募 为了应对地府管理危机,阎王打算找“人”开发一套地府后台管理系统,于是就在地府总经办群中发了项目需求。 话说还是中国电信的信号好,地府都是满格,哈哈!!! 经常会有外行朋友问:看某网站做的不错,功能也简单,你帮忙做一下? 而这次,面对这样的需求,这个程序员
网易云6亿用户音乐推荐算法
网易云音乐是音乐爱好者的集聚地,云音乐推荐系统致力于通过 AI 算法的落地,实现用户千人千面的个性化推荐,为用户带来不一样的听歌体验。 本次分享重点介绍 AI 算法在音乐推荐中的应用实践,以及在算法落地过程中遇到的挑战和解决方案。 将从如下两个部分展开: AI 算法在音乐推荐中的应用 音乐场景下的 AI 思考 从 2013 年 4 月正式上线至今,网易云音乐平台持续提供着:乐屏社区、UGC
【技巧总结】位运算装逼指南
位算法的效率有多快我就不说,不信你可以去用 10 亿个数据模拟一下,今天给大家讲一讲位运算的一些经典例子。不过,最重要的不是看懂了这些例子就好,而是要在以后多去运用位运算这些技巧,当然,采用位运算,也是可以装逼的,不信,你往下看。我会从最简单的讲起,一道比一道难度递增,不过居然是讲技巧,那么也不会太难,相信你分分钟看懂。 判断奇偶数 判断一个数是基于还是偶数,相信很多人都做过,一般的做法的代码如下
《C++ Primer》学习笔记(六):C++模块设计——函数
专栏C++学习笔记 《C++ Primer》学习笔记/习题答案 总目录 https://blog.csdn.net/TeFuirnever/article/details/100700212 —————————————————————————————————————————————————————— 《C++ Primer》习题参考答案:第6章 - C++模块设计——函数 文章目录专栏C+...
8年经验面试官详解 Java 面试秘诀
    作者 | 胡书敏 责编 | 刘静 出品 | CSDN(ID:CSDNnews) 本人目前在一家知名外企担任架构师,而且最近八年来,在多家外企和互联网公司担任Java技术面试官,前后累计面试了有两三百位候选人。在本文里,就将结合本人的面试经验,针对Java初学者、Java初级开发和Java开发,给出若干准备简历和准备面试的建议。   Java程序员准备和投递简历的实
面试官如何考察你的思维方式?
1.两种思维方式在求职面试中,经常会考察这种问题:北京有多少量特斯拉汽车? 某胡同口的煎饼摊一年能卖出多少个煎饼? 深圳有多少个产品经理? 一辆公交车里能装下多少个乒乓球? 一
so easy! 10行代码写个"狗屁不通"文章生成器
前几天,GitHub 有个开源项目特别火,只要输入标题就可以生成一篇长长的文章。背后实现代码一定很复杂吧,里面一定有很多高深莫测的机器学习等复杂算法不过,当我看了源代码之后这程序不到50
知乎高赞:中国有什么拿得出手的开源软件产品?(整理自本人原创回答)
知乎高赞:中国有什么拿得出手的开源软件产品? 在知乎上,有个问题问“中国有什么拿得出手的开源软件产品(在 GitHub 等社区受欢迎度较好的)?” 事实上,还不少呢~ 本人于2019.7.6进行了较为全面的 回答 - Bravo Yeung,获得该问题下回答中得最高赞(236赞和1枚专业勋章),对这些受欢迎的 Github 开源项目分类整理如下: 分布式计算、云平台相关工具类 1.SkyWalk
相关热词 c# clr dll c# 如何orm c# 固定大小的字符数组 c#框架设计 c# 删除数据库 c# 中文文字 图片转 c# 成员属性 接口 c#如何将程序封装 16进制负数转换 c# c#练手项目
立即提问