weixin_39603357
weixin_39603357
2020-12-26 06:50

Comskip Aborts

I'm using Comskip in conjunction to EyeTV through etv-comskip supported by essandess.

It seems to be working flawlessly in nearly every recording except for 1 show in particular, The Tonight Show Starring Jimmy Fallon. When I navigate to the .eyetv file and ls -l I can see the .edl file does not exist.


total 11123360
-rw-r--r--  1 user  staff        1371 Apr 27 23:39 000000001cd175cd.eyetvp
-rw-r--r--  1 user  staff      285440 Apr 27 23:39 000000001cd1bbec.eyetvi
-rw-r--r--  1 user  staff        2364 May  6 06:53 000000001cd1bbec.eyetvr
-rw-r--r--  1 user  staff       99717 May  5 19:40 000000001cd1bbec.log
-rw-r--r--  1 user  staff       11443 Apr 27 23:39 000000001cd1bbec.logo.txt
-rw-r--r--  1 user  staff  5688542916 Apr 27 23:39 000000001cd1bbec.mpg
-rw-r--r--  1 user  staff      159802 May  6 06:53 000000001cd1bbec.thumbnail.tiff
-rw-r--r--  1 user  staff     6015714 May  6 06:53 000000001cd1bbec.tiff
-rw-r--r--  1 user  staff           0 Apr 27 23:39 000000001cd1bbec.txt

Running comskip from the command line

/Library/Application\ Support/ETVComskip/bin/comskip --ini=/Library/Application\ Support/ETVComskip/comskip.ini 000000001cd1bbec.mpg Returns


Setting ini file to /Library/Application Support/ETVComskip/comskip.ini as per commandline
Using /Library/Application Support/ETVComskip/comskip.ini for initiation values.
Mpeg:   000000001cd1bbec.mpg
Exe comskip.exe
Logo:   000000001cd1bbec.logo.txt
Ini:    /Library/Application Support/ETVComskip/comskip.ini

Detection Methods to be used:
    1) Black Frame
    2) Logo - Give up after 2000 seconds
    3) Scene Change
    4) Resolution Change
    5) Closed Captions
    6) Aspect Ratio
    7) Silence


ComSkip throttles back from -0001 to -0001.
The time is now 0656 so it's full speed ahead!

Settings
--------
[Main Settings]
;the sum of the values for which kind of frames comskip will consider as possible cutpoints: 1=uniform (black or any other color) frame, 2=logo, 4=scene change, 8=resolution change, 16=closed captions, 32=aspect ration, 64=silence, 255=all.
detect_method=127
;Set to 10 to show a lot of extra info, level 5 is also OK, set to 0 to disable
verbose=10
;Frame not black if any of the pixels of the frame has a brightness greater than this (scale 0 to 255)
max_brightness=60
maxbright=1
;Frame not pure black if a small number of the pixels of the frame has a brightness greater than this. To decide if the frame is truly black, comskip will also check average brightness (scale 0 to 255)
test_brightness=40
;
max_avg_brightness=25
;
max_commercialbreak=600
;
min_commercialbreak=25
;
max_commercial_size=125
;
min_commercial_size=4
;
min_show_segment_length=250
;
max_volume=500
;
max_silence=100
;
non_uniformity=500
[Detailed Settings]
min_silence=12
noise_level=5
brightness_jump=200
fps=22
validate_silence=1
validate_uniform=1
validate_scenechange=1
global_threshold=1.05
disable_heuristics=4
[CPU Load Reduction]
thread_count=4
hardware_decode=1
play_nice_start=-1
play_nice_end=-1
play_nice_sleep=2
[Input Correction]
max_repair_size=200
ms_audio_delay=5
volume_slip=40
lowres=0
skip_b_frames=0
[Aspect Ratio]
ar_delta=0.08
cut_on_ar_change=1
[Global Removes]
padding=0
remove_before=0
remove_after=0
added_recording=14
delete_show_after_last_commercial=0
delete_show_before_first_commercial=0
delete_show_before_or_after_current=0
delete_block_after_commercial=0
min_commercial_break_at_start_or_end=39
always_keep_first_seconds=0
always_keep_last_seconds=0
[USA Specific]
intelligent_brightness=1
black_percentile=0.0076
uniform_percentile=0.003
score_percentile=0.71
[Main Scoring]
length_strict_modifier=3
length_nonstrict_modifier=1.5
combined_length_strict_modifier=2
combined_length_nonstrict_modifier=1.25
ar_wrong_modifier=2
excessive_length_modifier=0.01
dark_block_modifier=0.3
min_schange_modifier=0.5
max_schange_modifier=2
logo_present_modifier=0.01
punish_no_logo=1
[Detailed Scoring]
punish=0
reward=0
punish_threshold=1.3
punish_modifier=2
reward_modifier=0.5
[Logo Finding]
border=10
give_up_logo_search=2000
delay_logo_search=0
logo_max_percentage_of_screen=0.12
ticker_tape=0
ticker_tape_percentage=0
ignore_side=0
subtitles=0
logo_at_bottom=1
logo_threshold=0.75
logo_percentage_threshold=0.25
logo_filter=0
aggressive_logo_rejection=0
edge_level_threshold=5
edge_radius=2
edge_weight=10
edge_step=1
num_logo_buffers=50
use_existing_logo_file=1
two_pass_logo=1
[Logo Interpretation]
connect_blocks_with_logo=1
logo_percentile=0.92
logo_fraction=0.4
shrink_logo=5
shrink_logo_tail=0
before_logo=0
after_logo=0
where_logo=0
min_black_frames_for_break=1
[Closed Captioning]
ccCheck=0
cc_commercial_type_modifier=4
cc_wrong_type_modifier=2
cc_correct_type_modifier=0.75
[Live TV]
live_tv=0
live_tv_retries=0
require_div5=0
div5_tolerance=-1
incommercial_frames=1000
[Output Control]
output_default=1
output_chapters=0
output_plist_cutlist=0
output_zoomplayer_cutlist=0
output_zoomplayer_chapter=0
output_vcf=0
output_vdr=0
output_projectx=0
output_avisynth=0
output_videoredo=0
output_videoredo3=0
videoredo_offset=2
output_btv=0
output_edl=1
output_live=0
edl_offset=0
timeline_repair=1
edl_skip_field=0
output_edlp=0
output_bsplayer=0
output_edlx=0
output_cuttermaran=0
output_mpeg2schnitt=0
output_womble=0
output_mls=0
output_mpgtx=0
output_dvrmstb=0
output_dvrcut=0
output_ipodchap=0
output_framearray=0
output_debugwindow=0
output_tuning=0
output_training=0
output_false=0
output_aspect=0
output_demux=0
output_data=0
output_srt=0
output_smi=0
output_timing=0
output_incommercial=0
output_ffmeta=0
output_ffsplit=0
delete_logo_file=0
cutscene_frame=0
cutscene_threshold=10
windowtitle="Comskip - %s"
cuttermaran_options="cut=\"true\" unattended=\"true\" muxResult=\"false\" snapToCutPoints=\"true\" closeApp=\"true\""
mpeg2schnitt_options="mpeg2schnitt.exe /S /E /R25  /Z %2 %1"
avisynth_options="LoadPlugin(\"MPEG2Dec3.dll\") \nMPEG2Source(\"%s\")\n"
dvrcut_options="dvrcut \"%s.dvr-ms\" \"%s_clean.dvr-ms\" "
[Sage Workarounds]
sage_framenumber_bug=0
sage_minute_bug=0
enable_mencoder_pts=0

The logo mask file exists.
Using 000000001cd1bbec.logo.txt for logo data.
01234567890123456789012345678901234567890123456789012345678901234567890123456789012345678901234567890123
926:                                                                                                         
927:                                                                                                         
928:                                                                                                         
929:                                                                                                         
930:                                           --                ------                                      
931:                                         --                ----------                                    
932:                                    ---++---------               -----                                   
933:                                   -+-||---- ----+       ----+--+++++++                                  
934:                                  --++++-------   ||    --|+++----++++++|                                
935:                                 |++-+| -   ----+++|   +++++--     ++++++                                
936:                                ||++++          | ||| |++++         -++||||                              
937:                                ||++++          ++++|||+++- |        ||++||                              
938:                                |+++|           |||+||++++-          ||||||                              
939:                               ||||+             |++||+++|            ||||||                             
940:                               |||||             ||+|||+|+-           ||||||                             
941:                               |||+|              |||||++-+           ||||||                             
942:                     ----- --  ||+||             ||||||++-+-          ||||||                             
943:                    -----      ||++||            |||||-+-++- |        ||||||  --------                   
944:                  -+++++-+|-+||+|++|             ||||||-++++||        ||++| ------------                 
945:                 ++++++  || ||||+-+| |           |||||++++++|         |++||++++++++++--+-                
946:                ++++++-   |  ||++|+|            |||||||++++-          |+++++++++---++++++|               
947:               |+++++        |||++-+|            ||||||+++            |+|++++++-   --+++++|              
948:              ||++++ |        |++++++|          |||||||+++ |          |++++++-       +++++|              
949:              |++++ |         |||++++|          |||||||+|| |         ||++++++         |+++||             
950:             ||+++|            |++++++ |        ||++|||+|| |       ||++++++|           ++++|             
951:             ||++|||           ||+++++|         |||||||+|| |       ||++++++|           |+++| |           
952:             ||+|| |            |+++++|         |||||||+|| |       |+||+++ -             ++||            
953:             ||||| |            |++++++         |||||||+|| |      ||++++++              ||||             
954:             ||||| |            ||+++++|        ||||||||+||       |+++|++| |            |||||            
955:             ||+|| |             |+++++||      |||||||||+||       |++++++| |            |||| |           
956:             ||+||                |++++||      |||||| ||+|| |    ||+++|+|               |||||            
957:              |+++|               |+++++|      |||||  ||+|| |    ||+++++|              ||+||             
958:              |+||-               |++++++      |||||  ||+||      |+++++|               |++|              
959:              ||++|-               |+++++|     |||||  ||+|| |   |++++++|               +++||             
960:               |+++++              |++ +++     |||||   ||||     |+++++|               |+++||             
961:                |||+++-             ||++++|    ||+||   |++||    ++++++|             -++++++              
962:                - -+-++-            ||++|++|  |||+||   ||+||   |++|+++|            -|++++-               
963:            -------++++++-          |||+|++|  ||||||   |++||  ||+++++|            ++|++++----            
964:           ---+++- -----+++          |++|++|  |||+|    |++|| | +++++++-         -+++++--------           
965:          +++++++-++|++-++++          |+|++|| |||||    |++|| ||++++++-         +++++-+++---++--          
966:         ++++++----++++++---+-        |+++++| ||+||    ||++|| |+++++|        -+++-++++++--++++++         
967:        ++++++-     -||+++++-+-       |++++++ |||||    ||++|||++++++       --++++++++++----+++++-        
968:       |+++++        --|++++++++-      |+++++|||+||    ||++||++++++|      -++++++++++-      -++++|       
969:       |++++           -+++++++++-     |++++++|||||     ||+||++++++| |  -+++++++++++-        +++++|      
970:      ||++| |            ++++++++++    ||+++++|||||     ||+||+++++| |  -+++++++++--           |+++|      
971:      |+++| |             -++++++++++   |++|++|||||     |||+++++++|  --+|++++++++-             +++||     
972:      |+++|                -++++++++++-  |+++++||||     ||+++++++|-| ++++++++++-               |++||     
973:      ||+||                  -+++++++++  |+++-+||||     |||++|+++|-+++++++++++-                ||+||     
974:     | | |                    -+++++++++-||+++++|||     ||++++++|++++-+++++++                  |||||     
975:      ||||                      -+++++++++++++++|||      |+++|+++++++++++++-                   |||||     
976:     ||+-|                       -+++++++++++|++         ||++++++++++++++-                     ||||||    
977:      |+++|                        +++++++++++|+|         -+||++++++++++-                      ||+|||    
978:      |++|+                         -+++++++++|||         |+||+++++++++                        |++||     
979:       |+|++                         -++++++--+||         |+|++++++++-                        |+++||     
980:       |||+++                          -+++++--           ||++-+++++-|                       -++++||     
981:        +|+++--     -                    ++++++            ||++++++                         -+++++|      
982:         |+++++----------------------------+++||          -++++++- ------------------------+-++++-       
983:          -+++++----------------------------+++||         ||++++-  -----------------------+++++++        
984:           ---+--------------------------------         ||++++---- ----- -----------------+++++          
985:            ------------------------------------          | ------ ----------------------------          
986:               --------------------    - ---  -  ---------------------------------------------           
987:                -------------                  --------------- ---  ---     ----------------             
988:              -+++++----++++++-              --+++++--+++++++               --++++-----+++++-            
989:             |++++++----+++++++             ++++++++---+++++++-            -+++++-----+++++++--          
990:            +++++---------++++++-          ++++++--------+++++++          ++++++----------++++-          
991:           ++++++++++-+++++++|+++         ++++++++++--+++++++++++        +++++++++++-++++-+++++          
992:          ++++++++++----++++++++++|      ++++++++-------++++++++++      |++++++++------+++++++++|        
993:         |+++++++---------+++++++++|    +++++++++--------+++++++++|    |++++++++--- ----+++++++++|       
994:        |+++++++---       -++++++++||  |++++++++--        ++++++++||  |++++++++          -+++++++|       
995:        |+++++++           -+++++++||  |+++++++            +++++++||  |+++++++-           ++++++++|      
996:       |+++++++              +++++++| ||++++++|             ++++++++ | ++++++              +++++++|      
997:       |++++++                ++++++++++++|++                +++|+++|+ ++|++|               ++++++||     
998:      ||+++++|                |++|+-+++++||++                |++|++-|+-+||++                 +++++||     
999:      ||++|++|                +++|+++++++|+++-               ++++++- +++|+++-                |++|+||     
1000:      ||||||||               -+++||-+---+||+++-             -++++|-+---+||+++-               ||+||||     
1001:      |||||||               -++++|------ |||+++-           ++++++ ----- ||+++++              ||+||||     
1002:      |||||||              -|++++||++-++|  ++++++         ++++++-|+++++| -+++++|             |||||||     
1003:      ||+||||             +++++--|+++++++| +-+++++       +++++--+|+++++||---+++++            ||+|+||     
1004:      ||++|+|            |+++++++||++++++||+++|+++|     ++++++++||++||++| +-+++++|           ||+|+||     
1005:      ||+|||+|          |++++++++++++||+||-++++++++|   |++++++++|+ +||++||++++++++|          ||+|+||     
1006:      ||++|+++         ||++++++++|++|||++|+++++++++|   |++++++++|+-+||++++++++++++|          +++++||     
1007:       |+++||+         |++++++++|+++| ||++++++++++||| |++++++++++++| ||+++++++++++||        -+++++|      
1008:       |++++++++-      |++++++++++++| ||+++++++++|+|| ||+++++++++++|  |++++++++|+++|       +++++++       
1009:        |++++++++-    ||++|++++++++|   |+++++++++|+||||++|++++++++||  |++++++++++++|     -+++++++|       
1010:        |++++++++++-  |+++|++++++++|   |+++++++++|+||||+||++++++++|    |++++++++|+++   --++++++++-       
1011:         |++++++++++--+++||++++++++     |+++++++-|+++++++||+-+++++|    |+++++-+-||+++--+++++++++|        
1012:          ++++++++++-++++| -+++++|       ++++++- |++++++| -+++++-       |+++++--||++++++-++++++||        
1013:           +++++------++- -++++-+         -----+-||++++-|-++++++-        ++++++-||+----+-+++++           
1014:            +++++--------||+++++           +++++||------||++++|           -+++++| +-----+++---           
1015:              -++++------|+++-              -++++|+|----++++--              -+++|+++--+++++++            
1016:               -------+++|+++-               -+++|+++++++|+++                +++|+++--------             
1017:                 -----++++|++                 |+||++++++||++|                |++|+++------               
1018:                     -++++++++|              |++|+|+++|++|+++                ++++++|--                   
1019:                       |+++++++              +++++++  |++++++|             |+++++++                      
1020:                       |+++++++--          -++++++||  |++++++++-           +++++++|                      
1021:                        +++++|+++-        -++++++++    |++++++++--       -++++++++|                      
1022:                         +++++|++++------+++++++++|    |+++++++++--------+++++++++                       
1023:                         |+++++++++-+----+++++++++      |++++-+-+------++++++|+++                        
1024:                          +++++++-----++++++++++-        ++++++-------+-++++++++                         
1025:                           ++++++--------+++++++          +++++++-------+++++++|                         
1026:                            -++++--------+++++-            --++--------+++++-+                           
1027:                             --+++++---+-++----              ----------++++---                           
1028:                               -------------                   -------------                             
1029:                                  ---------                      --------                                
1030:                                                                                                         
1031:                                                                                                         
1032:                                                                                                         
1033:                                                                                                         
The last frame found in 000000001cd1bbec.txt was 0
[mpeg2video @ 0x7fa57a009600] Invalid frame dimensions 0x0.
[mpeg2video @ 0x7fa57a009600] Invalid frame dimensions 0x0.
[mpegts @ 0x7fa57a806a00] PES packet size mismatch
[mpegts @ 0x7fa57a806a00] PES packet size mismatch
[mpegts @ 0x7fa57a806a00] PES packet size mismatch
Input #0, mpegts, from '000000001cd1bbec.mpg':
  Duration: 01:06:00.15, start: 4410.244778, bitrate: 11491 kb/s
  Program 3 
    Stream #0:0[0x31]: Video: mpeg2video (Main) ([2][0][0][0] / 0x0002), yuv420p(tv), 1920x1080 [SAR 1:1 DAR 16:9], Closed Captions, max. 80000 kb/s, 29.97 fps, 29.97 tbr, 90k tbn, 59.94 tbc
    Stream #0:1[0x34](eng): Audio: ac3 (AC-3 / 0x332D4341), 48000 Hz, 5.1(side), fltp, 384 kb/s
    Stream #0:2[0x35](spa): Audio: ac3 (AC-3 / 0x332D4341), 48000 Hz, stereo, fltp, 192 kb/s (visual impaired)
  Program 4 
  Program 5 

Initial pts =      0.167
Frame Rate set to 29.970 f/s
Frame: 1    Ratio: 1.92 MinY: 1 MaxY: 1002 MinX: 1 MaxX: 1920
[ac3 @ 0x7fa57a009c00] exponent out-of-range
[ac3 @ 0x7fa57a009c00] error decoding the audio block
overread 30
[mpeg2video @ 0x7fa57a009600] Warning MVs not available
[mpeg2video @ 0x7fa57a009600] 00 motion_type at 7 60
[mpeg2video @ 0x7fa57a009600] 00 motion_type at 109 59
[mpeg2video @ 0x7fa57a009600] 00 motion_type at 8 61
[mpeg2video @ 0x7fa57a009600] 00 motion_type at 4 8
[mpeg2video @ 0x7fa57a009600] 00 motion_type at 2 62
[mpeg2video @ 0x7fa57a009600] 00 motion_type at 10 9
[mpeg2video @ 0x7fa57a009600] 00 motion_type at 0 63
[mpeg2video @ 0x7fa57a009600] 00 motion_type at 25 10
[mpeg2video @ 0x7fa57a009600] invalid mb type in B Frame at 2 64
[mpeg2video @ 0x7fa57a009600] 00 motion_type at 0 11
[mpeg2video @ 0x7fa57a009600] 00 motion_type at 1 65
[mpeg2video @ 0x7fa57a009600] 00 motion_type at 11 12
[mpeg2video @ 0x7fa57a009600] 00 motion_type at 0 66
[mpeg2video @ 0x7fa57a009600] 00 motion_type at 16 13
[mpeg2video @ 0x7fa57a009600] 00 motion_type at 0 67
[mpeg2video @ 0x7fa57a009600] 00 motion_type at 2 14
[mpeg2video @ 0x7fa57a009600] 00 motion_type at 1 15
[mpeg2video @ 0x7fa57a009600] invalid cbp 0 at 19 16
[mpeg2video @ 0x7fa57a009600] 00 motion_type at 25 17
[mpeg2video @ 0x7fa57a009600] 00 motion_type at 1 18
[mpeg2video @ 0x7fa57a009600] 00 motion_type at 0 19
[mpeg2video @ 0x7fa57a009600] 00 motion_type at 1 20
[mpeg2video @ 0x7fa57a009600] 00 motion_type at 7 21
[mpeg2video @ 0x7fa57a009600] 00 motion_type at 0 22
[mpeg2video @ 0x7fa57a009600] 00 motion_type at 1 23
[mpeg2video @ 0x7fa57a009600] 00 motion_type at 10 24
[mpeg2video @ 0x7fa57a009600] 00 motion_type at 0 25
[mpeg2video @ 0x7fa57a009600] 00 motion_type at 0 26
[mpeg2video @ 0x7fa57a009600] 00 motion_type at 2 27
[mpeg2video @ 0x7fa57a009600] skip with previntra
[mpeg2video @ 0x7fa57a009600] 00 motion_type at 2 29
[mpeg2video @ 0x7fa57a009600] 00 motion_type at 0 30
[mpeg2video @ 0x7fa57a009600] 00 motion_type at 19 31
[mpeg2video @ 0x7fa57a009600] 00 motion_type at 1 32
[mpeg2video @ 0x7fa57a009600] 00 motion_type at 1 33
[mpeg2video @ 0x7fa57a009600] mb incr damaged
[mpeg2video @ 0x7fa57a009600] 00 motion_type at 0 35
[mpeg2video @ 0x7fa57a009600] 00 motion_type at 4 36
[mpeg2video @ 0x7fa57a009600] 00 motion_type at 0 37
[mpeg2video @ 0x7fa57a009600] 00 motion_type at 0 38
[mpeg2video @ 0x7fa57a009600] 00 motion_type at 7 39
[mpeg2video @ 0x7fa57a009600] 00 motion_type at 0 40
[mpeg2video @ 0x7fa57a009600] 00 motion_type at 0 41
[mpeg2video @ 0x7fa57a009600] 00 motion_type at 0 42
[mpeg2video @ 0x7fa57a009600] 00 motion_type at 0 43
[mpeg2video @ 0x7fa57a009600] 00 motion_type at 3 44
[mpeg2video @ 0x7fa57a009600] 00 motion_type at 0 45
[mpeg2video @ 0x7fa57a009600] 00 motion_type at 0 46
[mpeg2video @ 0x7fa57a009600] 00 motion_type at 0 47
[mpeg2video @ 0x7fa57a009600] 00 motion_type at 18 48
[mpeg2video @ 0x7fa57a009600] 00 motion_type at 0 49
[mpeg2video @ 0x7fa57a009600] 00 motion_type at 9 50
[mpeg2video @ 0x7fa57a009600] 00 motion_type at 0 51
[mpeg2video @ 0x7fa57a009600] 00 motion_type at 0 52
[mpeg2video @ 0x7fa57a009600] 00 motion_type at 0 53
[mpeg2video @ 0x7fa57a009600] 00 motion_type at 3 54
[mpeg2video @ 0x7fa57a009600] 00 motion_type at 0 55
[mpeg2video @ 0x7fa57a009600] 00 motion_type at 1 56
[mpeg2video @ 0x7fa57a009600] 00 motion_type at 1 57
[mpeg2video @ 0x7fa57a009600] 00 motion_type at 0 58
[mpeg2video @ 0x7fa57a009600] 00 motion_type at 0 59
[mpeg2video @ 0x7fa57a009600] Warning MVs not available
Frame: 62   Ratio: 1.78 MinY: 1 MaxY: 1080  MinX: 1 MaxX: 1920
Resizing cc text array to accomodate 101 cc text groups.
Frame   1522 (50.751s) - Black frame because large scene change of 8, uniform 28252
Frame   1581 (52.719s) - Black frame because large scene change of 10, uniform 34093
Frame   2031 (67.734s) - Black frame with brightness of 16,uniform of 0 and volume of 733
Frame   2032 (67.768s) - Black frame because large scene change of 0, uniform 686
Frame   2062 (68.769s) - Black frame because large scene change of 2, uniform 43539
Frame   2722 (90.791s) - Black frame because large scene change of 13, uniform 8153
Frame   2872 (95.796s) - Black frame because large scene change of 3, uniform 2217
Frame   2928 (97.664s) - Black frame because large scene change of 0, uniform 1662
Frame   2929 (97.698s) - Black frame because large scene change of 0, uniform 567
Frame   2930 (97.731s) - Black frame with brightness of 16,uniform of 0 and volume of -1
Frame   2931 (97.764s) - Black frame with brightness of 16,uniform of 0 and volume of -1
Frame   2932 (97.798s) - Black frame with brightness of 16,uniform of 0 and volume of -1
Frame   2933 (97.831s) - Black frame with brightness of 16,uniform of 0 and volume of -1
Frame   2934 (97.864s) - Black frame with brightness of 16,uniform of 0 and volume of -1
Frame   2935 (97.898s) - Black frame with brightness of 16,uniform of 0 and volume of -1
Frame   2936 (97.931s) - Black frame with brightness of 16,uniform of 0 and volume of -1
Frame   2937 (97.965s) - Black frame with brightness of 16,uniform of 0 and volume of -1
Frame   2938 (97.998s) - Black frame with brightness of 16,uniform of 0 and volume of -1
Frame   2939 (98.031s) - Black frame with brightness of 16,uniform of 0 and volume of -1
Frame   2940 (98.065s) - Black frame with brightness of 16,uniform of 0 and volume of -1
Frame   2941 (98.098s) - Black frame with brightness of 16,uniform of 0 and volume of -1
Frame   2942 (98.131s) - Black frame with brightness of 16,uniform of 0 and volume of -1
Frame   2943 (98.165s) - Black frame with brightness of 16,uniform of 0 and volume of -1
Frame   2944 (98.198s) - Black frame with brightness of 16,uniform of 0 and volume of -1
Frame   2945 (98.231s) - Black frame with brightness of 16,uniform of 0 and volume of -1
Frame   2946 (98.265s) - Black frame with brightness of 16,uniform of 0 and volume of -1
Frame   2947 (98.298s) - Black frame with brightness of 16,uniform of 0 and volume of -1
Frame   2948 (98.332s) - Black frame with brightness of 16,uniform of 0 and volume of -1
Frame   2949 (98.365s) - Black frame with brightness of 16,uniform of 0 and volume of -1
Frame   2950 (98.398s) - Black frame with brightness of 16,uniform of 0 and volume of -1
Frame   2951 (98.432s) - Black frame with brightness of 16,uniform of 0 and volume of -1
Frame   2952 (98.465s) - Black frame with brightness of 16,uniform of 0 and volume of -1
Frame   2953 (98.498s) - Black frame with brightness of 16,uniform of 0 and volume of -1
Frame   2954 (98.532s) - Black frame with brightness of 16,uniform of 0 and volume of -1
Frame   2955 (98.565s) - Black frame with brightness of 16,uniform of 0 and volume of -1
Frame   2956 (98.599s) - Black frame with brightness of 16,uniform of 0 and volume of -1
Frame   2957 (98.632s) - Black frame with brightness of 16,uniform of 0 and volume of -1
Frame   2958 (98.665s) - Black frame with brightness of 16,uniform of 0 and volume of -1
Frame   2959 (98.699s) - Black frame with brightness of 16,uniform of 0 and volume of -1
Frame   2960 (98.732s) - Black frame with brightness of 16,uniform of 0 and volume of -1
Frame   2961 (98.765s) - Black frame with brightness of 16,uniform of 0 and volume of -1
Frame   2962 (98.799s) - Black frame with brightness of 16,uniform of 0 and volume of -1
Frame   2963 (98.832s) - Black frame with brightness of 16,uniform of 0 and volume of -1
Frame   2964 (98.865s) - Black frame with brightness of 16,uniform of 0 and volume of -1
Frame   2965 (98.899s) - Black frame with brightness of 16,uniform of 0 and volume of -1
Frame   2966 (98.932s) - Black frame with brightness of 16,uniform of 0 and volume of -1
Frame   2967 (98.966s) - Black frame with brightness of 16,uniform of 0 and volume of -1
Frame   2968 (98.999s) - Black frame with brightness of 16,uniform of 0 and volume of -1
Frame   2969 (99.032s) - Black frame with brightness of 16,uniform of 0 and volume of -1
Frame   2970 (99.066s) - Black frame with brightness of 16,uniform of 0 and volume of -1
Frame   2971 (99.099s) - Black frame with brightness of 16,uniform of 0 and volume of -1
Frame   2972 (99.132s) - Black frame with brightness of 16,uniform of 0 and volume of -1
Frame   2973 (99.166s) - Black frame with brightness of 16,uniform of 0 and volume of -1
Frame   2974 (99.199s) - Black frame with brightness of 16,uniform of 0 and volume of -1
Frame   2975 (99.232s) - Black frame with brightness of 16,uniform of 0 and volume of -1
Frame   2976 (99.266s) - Black frame with brightness of 16,uniform of 0 and volume of -1
Frame   2977 (99.299s) - Black frame with brightness of 16,uniform of 0 and volume of -1
Frame   2978 (99.333s) - Black frame with brightness of 16,uniform of 0 and volume of -1
Frame   2979 (99.366s) - Black frame with brightness of 16,uniform of 0 and volume of -1
Frame   2980 (99.399s) - Black frame with brightness of 16,uniform of 0 and volume of -1
Frame   2981 (99.433s) - Black frame with brightness of 16,uniform of 0 and volume of -1
XDS[2981]:  1 85 c8 45 8f 5e  0  0  0  0  0 XDS[2981]: V-Chip:  8 48 45  0
Frame   2982 (99.466s) - Black frame with brightness of 16,uniform of 0 and volume of -1
Frame   2983 (99.499s) - Black frame with brightness of 16,uniform of 0 and volume of -1
Frame   2984 (99.533s) - Black frame with brightness of 16,uniform of 0 and volume of -1
XDS[2990]:  1  4 a1 80 8f cb  0  0  0  0  0 XDS[2990]: Program Type: a3eb6b2
XDS[3082]:  1 83 54 ef 6e e9 67 68 f4 20 d3 XDS[3082]: Program Name: Tonight Show Jimmy Fallon
                Start logo cblock 0 frame 3277
Resizing cc text array to accomodate 201 cc text groups.c(541.00 fps), 4%
XDS[10464]:  1 83 54 ef 6e e9 67 68 f4 20 d3 Abort trap: 6(430.00 fps), 8%

And then returns to the command line for next instruction. Because comskip never fully completes the .edl file is never created and MarkCommercials can't operate correctly.

Below is a link to the .eyetv file which is simply a diretory with it's contents for you if necessary. The Tonight Show Starring Jimmy Fallon

Thanks for your support

该提问来源于开源项目:erikkaashoek/Comskip

  • 点赞
  • 写回答
  • 关注问题
  • 收藏
  • 复制链接分享
  • 邀请回答

5条回答

  • weixin_39956451 weixin_39956451 4月前

    Trying to download the folder

    Waiting for approval

    Erik.

    On 6-5-2016 14:06, mlcrow wrote:

    I'm using Comskip in conjunction to EyeTV through etv-comskip supported by essandess.

    It seems to be working flawlessly in nearly every recording except for 1 show in particular, The Tonight Show Starring Jimmy Fallon. When I navigate to the |.eyetv| file and |ls -l| I can see the |.edl| file does not exist.

    |total 11123360 -rw-r--r-- 1 user staff 1371 Apr 27 23:39 000000001cd175cd.eyetvp -rw-r--r-- 1 user staff 285440 Apr 27 23:39 000000001cd1bbec.eyetvi -rw-r--r-- 1 user staff 2364 May 6 06:53 000000001cd1bbec.eyetvr -rw-r--r-- 1 user staff 99717 May 5 19:40 000000001cd1bbec.log -rw-r--r-- 1 user staff 11443 Apr 27 23:39 000000001cd1bbec.logo.txt -rw-r--r-- 1 user staff 5688542916 Apr 27 23:39 000000001cd1bbec.mpg -rw-r--r-- 1 user staff 159802 May 6 06:53 000000001cd1bbec.thumbnail.tiff -rw-r--r-- 1 user staff 6015714 May 6 06:53 000000001cd1bbec.tiff -rw-r--r-- 1 user staff 0 Apr 27 23:39 000000001cd1bbec.txt |

    Running comskip from the command line

    |/Library/Application\ Support/ETVComskip/bin/comskip --ini=/Library/Application\ Support/ETVComskip/comskip.ini 000000001cd1bbec.mpg | Returns

    |Setting ini file to /Library/Application Support/ETVComskip/comskip.ini as per commandline Using /Library/Application Support/ETVComskip/comskip.ini for initiation values. Mpeg: 000000001cd1bbec.mpg Exe comskip.exe Logo: 000000001cd1bbec.logo.txt Ini: /Library/Application Support/ETVComskip/comskip.ini Detection Methods to be used: 1) Black Frame 2) Logo - Give up after 2000 seconds 3) Scene Change 4) Resolution Change 5) Closed Captions 6) Aspect Ratio 7) Silence ComSkip throttles back from -0001 to -0001. The time is now 0656 so it's full speed ahead! Settings -------- [Main Settings] ;the sum of the values for which kind of frames comskip will consider as possible cutpoints: 1=uniform (black or any other color) frame, 2=logo, 4=scene change, 8=resolution change, 16=closed captions, 32=aspect ration, 64=silence, 255=all. detect_method=127 ;Set to 10 to show a lot of extra info, level 5 is also OK, set to 0 to disable verbose=10 ;Frame not black if any of the pixels of the frame has a brightness greater than this (scale 0 to 255) max_brightness=60 maxbright=1 ;Frame not pure black if a small number of the pixels of the frame has a brightness greater than this. To decide if the frame is truly black, comskip will also check average brightness (scale 0 to 255) test_brightness=40 ; max_avg_brightness=25 ; max_commercialbreak=600 ; min_commercialbreak=25 ; max_commercial_size=125 ; min_commercial_size=4 ; min_show_segment_length=250 ; max_volume=500 ; max_silence=100 ; non_uniformity=500 [Detailed Settings] min_silence=12 noise_level=5 brightness_jump=200 fps=22 validate_silence=1 validate_uniform=1 validate_scenechange=1 global_threshold=1.05 disable_heuristics=4 [CPU Load Reduction] thread_count=4 hardware_decode=1 play_nice_start=-1 play_nice_end=-1 play_nice_sleep=2 [Input Correction] max_repair_size=200 ms_audio_delay=5 volume_slip=40 lowres=0 skip_b_frames=0 [Aspect Ratio] ar_delta=0.08 cut_on_ar_change=1 [Global Removes] padding=0 remove_before=0 remove_after=0 added_recording=14 delete_show_after_last_commercial=0 delete_show_before_first_commercial=0 delete_show_before_or_after_current=0 delete_block_after_commercial=0 min_commercial_break_at_start_or_end=39 always_keep_first_seconds=0 always_keep_last_seconds=0 [USA Specific] intelligent_brightness=1 black_percentile=0.0076 uniform_percentile=0.003 score_percentile=0.71 [Main Scoring] length_strict_modifier=3 length_nonstrict_modifier=1.5 combined_length_strict_modifier=2 combined_length_nonstrict_modifier=1.25 ar_wrong_modifier=2 excessive_length_modifier=0.01 dark_block_modifier=0.3 min_schange_modifier=0.5 max_schange_modifier=2 logo_present_modifier=0.01 punish_no_logo=1 [Detailed Scoring] punish=0 reward=0 punish_threshold=1.3 punish_modifier=2 reward_modifier=0.5 [Logo Finding] border=10 give_up_logo_search=2000 delay_logo_search=0 logo_max_percentage_of_screen=0.12 ticker_tape=0 ticker_tape_percentage=0 ignore_side=0 subtitles=0 logo_at_bottom=1 logo_threshold=0.75 logo_percentage_threshold=0.25 logo_filter=0 aggressive_logo_rejection=0 edge_level_threshold=5 edge_radius=2 edge_weight=10 edge_step=1 num_logo_buffers=50 use_existing_logo_file=1 two_pass_logo=1 [Logo Interpretation] connect_blocks_with_logo=1 logo_percentile=0.92 logo_fraction=0.4 shrink_logo=5 shrink_logo_tail=0 before_logo=0 after_logo=0 where_logo=0 min_black_frames_for_break=1 [Closed Captioning] ccCheck=0 cc_commercial_type_modifier=4 cc_wrong_type_modifier=2 cc_correct_type_modifier=0.75 [Live TV] live_tv=0 live_tv_retries=0 require_div5=0 div5_tolerance=-1 incommercial_frames=1000 [Output Control] output_default=1 output_chapters=0 output_plist_cutlist=0 output_zoomplayer_cutlist=0 output_zoomplayer_chapter=0 output_vcf=0 output_vdr=0 output_projectx=0 output_avisynth=0 output_videoredo=0 output_videoredo3=0 videoredo_offset=2 output_btv=0 output_edl=1 output_live=0 edl_offset=0 timeline_repair=1 edl_skip_field=0 output_edlp=0 output_bsplayer=0 output_edlx=0 output_cuttermaran=0 output_mpeg2schnitt=0 output_womble=0 output_mls=0 output_mpgtx=0 output_dvrmstb=0 output_dvrcut=0 output_ipodchap=0 output_framearray=0 output_debugwindow=0 output_tuning=0 output_training=0 output_false=0 output_aspect=0 output_demux=0 output_data=0 output_srt=0 output_smi=0 output_timing=0 output_incommercial=0 output_ffmeta=0 output_ffsplit=0 delete_logo_file=0 cutscene_frame=0 cutscene_threshold=10 windowtitle="Comskip - %s" cuttermaran_options="cut=\"true\" unattended=\"true\" muxResult=\"false\" snapToCutPoints=\"true\" closeApp=\"true\"" mpeg2schnitt_options="mpeg2schnitt.exe /S /E /R25 /Z %2 %1" avisynth_options="LoadPlugin(\"MPEG2Dec3.dll\") \nMPEG2Source(\"%s\")\n" dvrcut_options="dvrcut \"%s.dvr-ms\" \"%s_clean.dvr-ms\" " [Sage Workarounds] sage_framenumber_bug=0 sage_minute_bug=0 enable_mencoder_pts=0 The logo mask file exists. Using 000000001cd1bbec.logo.txt for logo data. 01234567890123456789012345678901234567890123456789012345678901234567890123456789012345678901234567890123 926: 927: 928: 929: 930: -- ------ 931: -- ---------- 932: ---++--------- ----- 933: -+-||---- ----+ ----+--+++++++ 934: --++++------- || --|+++----++++++| 935: |++-+| - ----+++| +++++-- ++++++ 936: ||++++ | ||| |++++ -++|||| 937: ||++++ ++++|||+++- | ||++|| 938: |+++| |||+||++++- |||||| 939: ||||+ |++||+++| |||||| 940: ||||| ||+|||+|+- |||||| 941: |||+| |||||++-+ |||||| 942: ----- -- ||+|| ||||||++-+- |||||| 943: ----- ||++|| |||||-+-++- | |||||| -------- 944: -+++++-+|-+||+|++| ||||||-++++|| ||++| ------------ 945: ++++++ || ||||+-+| | |||||++++++| |++||++++++++++--+- 946: ++++++- | ||++|+| |||||||++++- |+++++++++---++++++| 947: |+++++ |||++-+| ||||||+++ |+|++++++- --+++++| 948: ||++++ | |++++++| |||||||+++ | |++++++- +++++| 949: |++++ | |||++++| |||||||+|| | ||++++++ |+++|| 950: ||+++| |++++++ | ||++|||+|| | ||++++++| ++++| 951: ||++||| ||+++++| |||||||+|| | ||++++++| |+++| | 952: ||+|| | |+++++| |||||||+|| | |+||+++ - ++|| 953: ||||| | |++++++ |||||||+|| | ||++++++ |||| 954: ||||| | ||+++++| ||||||||+|| |+++|++| | ||||| 955: ||+|| | |+++++|| |||||||||+|| |++++++| | |||| | 956: ||+|| |++++|| |||||| ||+|| | ||+++|+| ||||| 957: |+++| |+++++| ||||| ||+|| | ||+++++| ||+|| 958: |+||- |++++++ ||||| ||+|| |+++++| |++| 959: ||++|- |+++++| ||||| ||+|| | |++++++| +++|| 960: |+++++ |++ +++ ||||| |||| |+++++| |+++|| 961: |||+++- ||++++| ||+|| |++|| ++++++| -++++++ 962: - -+-++- ||++|++| |||+|| ||+|| |++|+++| -|++++- 963: -------++++++- |||+|++| |||||| |++|| ||+++++| ++|++++---- 964: ---+++- -----+++ |++|++| |||+| |++|| | +++++++- -+++++-------- 965: +++++++-++|++-++++ |+|++|| ||||| |++|| ||++++++- +++++-+++---++-- 966: ++++++----++++++---+- |+++++| ||+|| ||++|| |+++++| -+++-++++++--++++++ 967: ++++++- -||+++++-+- |++++++ ||||| ||++|||++++++ --++++++++++----+++++- 968: |+++++ --|++++++++- |+++++|||+|| ||++||++++++| -++++++++++- -++++| 969: |++++ -+++++++++- |++++++||||| ||+||++++++| | -+++++++++++- +++++| 970: ||++| | ++++++++++ ||+++++||||| ||+||+++++| | -+++++++++-- |+++| 971: |+++| | -++++++++++ |++|++||||| |||+++++++| --+|++++++++- +++|| 972: |+++| -++++++++++- |+++++|||| ||+++++++|-| ++++++++++- |++|| 973: ||+|| -+++++++++ |+++-+|||| |||++|+++|-+++++++++++- ||+|| 974: | | | -+++++++++-||+++++||| ||++++++|++++-+++++++ ||||| 975: |||| -+++++++++++++++||| |+++|+++++++++++++- ||||| 976: ||+-| -+++++++++++|++ ||++++++++++++++- |||||| 977: |+++| +++++++++++|+| -+||++++++++++- ||+||| 978: |++|+ -+++++++++||| |+||+++++++++ |++|| 979: |+|++ -++++++--+|| |+|++++++++- |+++|| 980: |||+++ -+++++-- ||++-+++++-| -++++|| 981: +|+++-- - ++++++ ||++++++ -+++++| 982: |+++++----------------------------+++|| -++++++- ------------------------+-++++- 983: -+++++----------------------------+++|| ||++++- -----------------------+++++++ 984: ---+-------------------------------- ||++++---- ----- -----------------+++++ 985: ------------------------------------ | ------ ---------------------------- 986: -------------------- - --- - --------------------------------------------- 987: ------------- --------------- --- --- ---------------- 988: -+++++----++++++- --+++++--+++++++ --++++-----+++++- 989: |++++++----+++++++ ++++++++---+++++++- -+++++-----+++++++-- 990: +++++---------++++++- ++++++--------+++++++ ++++++----------++++- 991: ++++++++++-+++++++|+++ ++++++++++--+++++++++++ +++++++++++-++++-+++++ 992: ++++++++++----++++++++++| ++++++++-------++++++++++ |++++++++------+++++++++| 993: |+++++++---------+++++++++| +++++++++--------+++++++++| |++++++++--- ----+++++++++| 994: |+++++++--- -++++++++|| |++++++++-- ++++++++|| |++++++++ -+++++++| 995: |+++++++ -+++++++|| |+++++++ +++++++|| |+++++++- ++++++++| 996: |+++++++ +++++++| ||++++++| ++++++++ | ++++++ +++++++| 997: |++++++ ++++++++++++|++ +++|+++|+ ++|++| ++++++|| 998: ||+++++| |++|+-+++++||++ |++|++-|+-+||++ +++++|| 999: ||++|++| +++|+++++++|+++- ++++++- +++|+++- |++|+|| 1000: |||||||| -+++||-+---+||+++- -++++|-+---+||+++- ||+|||| 1001: ||||||| -++++|------ |||+++- ++++++ ----- ||+++++ ||+|||| 1002: ||||||| -|++++||++-++| ++++++ ++++++-|+++++| -+++++| ||||||| 1003: ||+|||| +++++--|+++++++| +-+++++ +++++--+|+++++||---+++++ ||+|+|| 1004: ||++|+| |+++++++||++++++||+++|+++| ++++++++||++||++| +-+++++| ||+|+|| 1005: ||+|||+| |++++++++++++||+||-++++++++| |++++++++|+ +||++||++++++++| ||+|+|| 1006: ||++|+++ ||++++++++|++|||++|+++++++++| |++++++++|+-+||++++++++++++| +++++|| 1007: |+++||+ |++++++++|+++| ||++++++++++||| |++++++++++++| ||+++++++++++|| -+++++| 1008: |++++++++- |++++++++++++| ||+++++++++|+|| ||+++++++++++| |++++++++|+++| +++++++ 1009: |++++++++- ||++|++++++++| |+++++++++|+||||++|++++++++|| |++++++++++++| -+++++++| 1010: |++++++++++- |+++|++++++++| |+++++++++|+||||+||++++++++| |++++++++|+++ --++++++++- 1011: |++++++++++--+++||++++++++ |+++++++-|+++++++||+-+++++| |+++++-+-||+++--+++++++++| 1012: ++++++++++-++++| -+++++| ++++++- |++++++| -+++++- |+++++--||++++++-++++++|| 1013: +++++------++- -++++-+ -----+-||++++-|-++++++- ++++++-||+----+-+++++ 1014: +++++--------||+++++ +++++||------||++++| -+++++| +-----+++--- 1015: -++++------|+++- -++++|+|----++++-- -+++|+++--+++++++ 1016: -------+++|+++- -+++|+++++++|+++ +++|+++-------- 1017: -----++++|++ |+||++++++||++| |++|+++------ 1018: -++++++++| |++|+|+++|++|+++ ++++++|-- 1019: |+++++++ +++++++ |++++++| |+++++++ 1020: |+++++++-- -++++++|| |++++++++- +++++++| 1021: +++++|+++- -++++++++ |++++++++-- -++++++++| 1022: +++++|++++------+++++++++| |+++++++++--------+++++++++ 1023: |+++++++++-+----+++++++++ |++++-+-+------++++++|+++ 1024: +++++++-----++++++++++- ++++++-------+-++++++++ 1025: ++++++--------+++++++ +++++++-------+++++++| 1026: -++++--------+++++- --++--------+++++-+ 1027: --+++++---+-++---- ----------++++--- 1028: ------------- ------------- 1029: --------- -------- 1030: 1031: 1032: 1033: The last frame found in 000000001cd1bbec.txt was 0 [mpeg2video @ 0x7fa57a009600] Invalid frame dimensions 0x0. [mpeg2video @ 0x7fa57a009600] Invalid frame dimensions 0x0. [mpegts @ 0x7fa57a806a00] PES packet size mismatch [mpegts @ 0x7fa57a806a00] PES packet size mismatch [mpegts @ 0x7fa57a806a00] PES packet size mismatch Input #0, mpegts, from '000000001cd1bbec.mpg': Duration: 01:06:00.15, start: 4410.244778, bitrate: 11491 kb/s Program 3 Stream

    0:0[0x31]: Video: mpeg2video (Main) ([2][0][0][0] / 0x0002),

    yuv420p(tv), 1920x1080 [SAR 1:1 DAR 16:9], Closed Captions, max. 80000 kb/s, 29.97 fps, 29.97 tbr, 90k tbn, 59.94 tbc Stream #0:10x34: Audio: ac3 (AC-3 / 0x332D4341), 48000 Hz, 5.1(side), fltp, 384 kb/s Stream #0:20x35: Audio: ac3 (AC-3 / 0x332D4341), 48000 Hz, stereo, fltp, 192 kb/s (visual impaired) Program 4 Program 5 Initial pts = 0.167 Frame Rate set to 29.970 f/s Frame: 1 Ratio: 1.92 MinY: 1 MaxY: 1002 MinX: 1 MaxX: 1920 [ac3 @ 0x7fa57a009c00] exponent out-of-range [ac3 @ 0x7fa57a009c00] error decoding the audio block overread 30 [mpeg2video @ 0x7fa57a009600] Warning MVs not available [mpeg2video @ 0x7fa57a009600] 00 motion_type at 7 60 [mpeg2video @ 0x7fa57a009600] 00 motion_type at 109 59 [mpeg2video @ 0x7fa57a009600] 00 motion_type at 8 61 [mpeg2video @ 0x7fa57a009600] 00 motion_type at 4 8 [mpeg2video @ 0x7fa57a009600] 00 motion_type at 2 62 [mpeg2video @ 0x7fa57a009600] 00 motion_type at 10 9 [mpeg2video @ 0x7fa57a009600] 00 motion_type at 0 63 [mpeg2video @ 0x7fa57a009600] 00 motion_type at 25 10 [mpeg2video @ 0x7fa57a009600] invalid mb type in B Frame at 2 64 [mpeg2video @ 0x7fa57a009600] 00 motion_type at 0 11 [mpeg2video @ 0x7fa57a009600] 00 motion_type at 1 65 [mpeg2video @ 0x7fa57a009600] 00 motion_type at 11 12 [mpeg2video @ 0x7fa57a009600] 00 motion_type at 0 66 [mpeg2video @ 0x7fa57a009600] 00 motion_type at 16 13 [mpeg2video @ 0x7fa57a009600] 00 motion_type at 0 67 [mpeg2video @ 0x7fa57a009600] 00 motion_type at 2 14 [mpeg2video @ 0x7fa57a009600] 00 motion_type at 1 15 [mpeg2video @ 0x7fa57a009600] invalid cbp 0 at 19 16 [mpeg2video @ 0x7fa57a009600] 00 motion_type at 25 17 [mpeg2video @ 0x7fa57a009600] 00 motion_type at 1 18 [mpeg2video @ 0x7fa57a009600] 00 motion_type at 0 19 [mpeg2video @ 0x7fa57a009600] 00 motion_type at 1 20 [mpeg2video @ 0x7fa57a009600] 00 motion_type at 7 21 [mpeg2video @ 0x7fa57a009600] 00 motion_type at 0 22 [mpeg2video @ 0x7fa57a009600] 00 motion_type at 1 23 [mpeg2video @ 0x7fa57a009600] 00 motion_type at 10 24 [mpeg2video @ 0x7fa57a009600] 00 motion_type at 0 25 [mpeg2video @ 0x7fa57a009600] 00 motion_type at 0 26 [mpeg2video @ 0x7fa57a009600] 00 motion_type at 2 27 [mpeg2video @ 0x7fa57a009600] skip with previntra [mpeg2video @ 0x7fa57a009600] 00 motion_type at 2 29 [mpeg2video @ 0x7fa57a009600] 00 motion_type at 0 30 [mpeg2video @ 0x7fa57a009600] 00 motion_type at 19 31 [mpeg2video @ 0x7fa57a009600] 00 motion_type at 1 32 [mpeg2video @ 0x7fa57a009600] 00 motion_type at 1 33 [mpeg2video @ 0x7fa57a009600] mb incr damaged [mpeg2video @ 0x7fa57a009600] 00 motion_type at 0 35 [mpeg2video @ 0x7fa57a009600] 00 motion_type at 4 36 [mpeg2video @ 0x7fa57a009600] 00 motion_type at 0 37 [mpeg2video @ 0x7fa57a009600] 00 motion_type at 0 38 [mpeg2video @ 0x7fa57a009600] 00 motion_type at 7 39 [mpeg2video @ 0x7fa57a009600] 00 motion_type at 0 40 [mpeg2video @ 0x7fa57a009600] 00 motion_type at 0 41 [mpeg2video @ 0x7fa57a009600] 00 motion_type at 0 42 [mpeg2video @ 0x7fa57a009600] 00 motion_type at 0 43 [mpeg2video @ 0x7fa57a009600] 00 motion_type at 3 44 [mpeg2video @ 0x7fa57a009600] 00 motion_type at 0 45 [mpeg2video @ 0x7fa57a009600] 00 motion_type at 0 46 [mpeg2video @ 0x7fa57a009600] 00 motion_type at 0 47 [mpeg2video @ 0x7fa57a009600] 00 motion_type at 18 48 [mpeg2video @ 0x7fa57a009600] 00 motion_type at 0 49 [mpeg2video @ 0x7fa57a009600] 00 motion_type at 9 50 [mpeg2video @ 0x7fa57a009600] 00 motion_type at 0 51 [mpeg2video @ 0x7fa57a009600] 00 motion_type at 0 52 [mpeg2video @ 0x7fa57a009600] 00 motion_type at 0 53 [mpeg2video @ 0x7fa57a009600] 00 motion_type at 3 54 [mpeg2video @ 0x7fa57a009600] 00 motion_type at 0 55 [mpeg2video @ 0x7fa57a009600] 00 motion_type at 1 56 [mpeg2video @ 0x7fa57a009600] 00 motion_type at 1 57 [mpeg2video @ 0x7fa57a009600] 00 motion_type at 0 58 [mpeg2video @ 0x7fa57a009600] 00 motion_type at 0 59 [mpeg2video @ 0x7fa57a009600] Warning MVs not available Frame: 62 Ratio: 1.78 MinY: 1 MaxY: 1080 MinX: 1 MaxX: 1920 Resizing cc text array to accomodate 101 cc text groups. Frame 1522 (50.751s) - Black frame because large scene change of 8, uniform 28252 Frame 1581 (52.719s) - Black frame because large scene change of 10, uniform 34093 Frame 2031 (67.734s) - Black frame with brightness of 16,uniform of 0 and volume of 733 Frame 2032 (67.768s) - Black frame because large scene change of 0, uniform 686 Frame 2062 (68.769s) - Black frame because large scene change of 2, uniform 43539 Frame 2722 (90.791s) - Black frame because large scene change of 13, uniform 8153 Frame 2872 (95.796s) - Black frame because large scene change of 3, uniform 2217 Frame 2928 (97.664s) - Black frame because large scene change of 0, uniform 1662 Frame 2929 (97.698s) - Black frame because large scene change of 0, uniform 567 Frame 2930 (97.731s) - Black frame with brightness of 16,uniform of 0 and volume of -1 Frame 2931 (97.764s) - Black frame with brightness of 16,uniform of 0 and volume of -1 Frame 2932 (97.798s) - Black frame with brightness of 16,uniform of 0 and volume of -1 Frame 2933 (97.831s) - Black frame with brightness of 16,uniform of 0 and volume of -1 Frame 2934 (97.864s) - Black frame with brightness of 16,uniform of 0 and volume of -1 Frame 2935 (97.898s) - Black frame with brightness of 16,uniform of 0 and volume of -1 Frame 2936 (97.931s) - Black frame with brightness of 16,uniform of 0 and volume of -1 Frame 2937 (97.965s) - Black frame with brightness of 16,uniform of 0 and volume of -1 Frame 2938 (97.998s) - Black frame with brightness of 16,uniform of 0 and volume of -1 Frame 2939 (98.031s) - Black frame with brightness of 16,uniform of 0 and volume of -1 Frame 2940 (98.065s) - Black frame with brightness of 16,uniform of 0 and volume of -1 Frame 2941 (98.098s) - Black frame with brightness of 16,uniform of 0 and volume of -1 Frame 2942 (98.131s) - Black frame with brightness of 16,uniform of 0 and volume of -1 Frame 2943 (98.165s) - Black frame with brightness of 16,uniform of 0 and volume of -1 Frame 2944 (98.198s) - Black frame with brightness of 16,uniform of 0 and volume of -1 Frame 2945 (98.231s) - Black frame with brightness of 16,uniform of 0 and volume of -1 Frame 2946 (98.265s) - Black frame with brightness of 16,uniform of 0 and volume of -1 Frame 2947 (98.298s) - Black frame with brightness of 16,uniform of 0 and volume of -1 Frame 2948 (98.332s) - Black frame with brightness of 16,uniform of 0 and volume of -1 Frame 2949 (98.365s) - Black frame with brightness of 16,uniform of 0 and volume of -1 Frame 2950 (98.398s) - Black frame with brightness of 16,uniform of 0 and volume of -1 Frame 2951 (98.432s) - Black frame with brightness of 16,uniform of 0 and volume of -1 Frame 2952 (98.465s) - Black frame with brightness of 16,uniform of 0 and volume of -1 Frame 2953 (98.498s) - Black frame with brightness of 16,uniform of 0 and volume of -1 Frame 2954 (98.532s) - Black frame with brightness of 16,uniform of 0 and volume of -1 Frame 2955 (98.565s) - Black frame with brightness of 16,uniform of 0 and volume of -1 Frame 2956 (98.599s) - Black frame with brightness of 16,uniform of 0 and volume of -1 Frame 2957 (98.632s) - Black frame with brightness of 16,uniform of 0 and volume of -1 Frame 2958 (98.665s) - Black frame with brightness of 16,uniform of 0 and volume of -1 Frame 2959 (98.699s) - Black frame with brightness of 16,uniform of 0 and volume of -1 Frame 2960 (98.732s) - Black frame with brightness of 16,uniform of 0 and volume of -1 Frame 2961 (98.765s) - Black frame with brightness of 16,uniform of 0 and volume of -1 Frame 2962 (98.799s) - Black frame with brightness of 16,uniform of 0 and volume of -1 Frame 2963 (98.832s) - Black frame with brightness of 16,uniform of 0 and volume of -1 Frame 2964 (98.865s) - Black frame with brightness of 16,uniform of 0 and volume of -1 Frame 2965 (98.899s) - Black frame with brightness of 16,uniform of 0 and volume of -1 Frame 2966 (98.932s) - Black frame with brightness of 16,uniform of 0 and volume of -1 Frame 2967 (98.966s) - Black frame with brightness of 16,uniform of 0 and volume of -1 Frame 2968 (98.999s) - Black frame with brightness of 16,uniform of 0 and volume of -1 Frame 2969 (99.032s) - Black frame with brightness of 16,uniform of 0 and volume of -1 Frame 2970 (99.066s) - Black frame with brightness of 16,uniform of 0 and volume of -1 Frame 2971 (99.099s) - Black frame with brightness of 16,uniform of 0 and volume of -1 Frame 2972 (99.132s) - Black frame with brightness of 16,uniform of 0 and volume of -1 Frame 2973 (99.166s) - Black frame with brightness of 16,uniform of 0 and volume of -1 Frame 2974 (99.199s) - Black frame with brightness of 16,uniform of 0 and volume of -1 Frame 2975 (99.232s) - Black frame with brightness of 16,uniform of 0 and volume of -1 Frame 2976 (99.266s) - Black frame with brightness of 16,uniform of 0 and volume of -1 Frame 2977 (99.299s) - Black frame with brightness of 16,uniform of 0 and volume of -1 Frame 2978 (99.333s) - Black frame with brightness of 16,uniform of 0 and volume of -1 Frame 2979 (99.366s) - Black frame with brightness of 16,uniform of 0 and volume of -1 Frame 2980 (99.399s) - Black frame with brightness of 16,uniform of 0 and volume of -1 Frame 2981 (99.433s) - Black frame with brightness of 16,uniform of 0 and volume of -1 XDS[2981]: 1 85 c8 45 8f 5e 0 0 0 0 0 XDS[2981]: V-Chip: 8 48 45 0 Frame 2982 (99.466s) - Black frame with brightness of 16,uniform of 0 and volume of -1 Frame 2983 (99.499s) - Black frame with brightness of 16,uniform of 0 and volume of -1 Frame 2984 (99.533s) - Black frame with brightness of 16,uniform of 0 and volume of -1 XDS[2990]: 1 4 a1 80 8f cb 0 0 0 0 0 XDS[2990]: Program Type: a3eb6b2 XDS[3082]: 1 83 54 ef 6e e9 67 68 f4 20 d3 XDS[3082]: Program Name: Tonight Show Jimmy Fallon Start logo cblock 0 frame 3277 Resizing cc text array to accomodate 201 cc text groups.c(541.00 fps), 4% XDS[10464]: 1 83 54 ef 6e e9 67 68 f4 20 d3 Abort trap: 6(430.00 fps), 8% |

    And then returns to the command line for next instruction. Because comskip never fully completes the .edl file is never created and MarkCommercials can't operate correctly.

    Below is a link to the |.eyetv| file which is simply a diretory with it's contents for you if necessary. The Tonight Show Starring Jimmy Fallon https://link.getsync.com/#f=Tonight%20Show%20Starring%20Jimmy%20Fallon&sz=0&t=1&s=P6LLH6M2ATGDBTCBHHQQN73R3R75WYQB&i=COY7DVKEOLFQCELGENDH5NQBOCTIK5IW2&v=2.3

    Thanks for your support

    — You are receiving this because you are subscribed to this thread. Reply to this email directly or view it on GitHub https://github.com/erikkaashoek/Comskip/issues/47

    点赞 评论 复制链接分享
  • weixin_39603357 weixin_39603357 4月前

    Approved. Folder download should be in progress.

    点赞 评论 复制链接分享
  • weixin_39956451 weixin_39956451 4月前

    NO crash on my system

    Can you test with

    detect_method=111

    in your comskip.ini file?

    Erik.

    On 6-5-2016 14:06, mlcrow wrote:

    I'm using Comskip in conjunction to EyeTV through etv-comskip supported by essandess.

    It seems to be working flawlessly in nearly every recording except for 1 show in particular, The Tonight Show Starring Jimmy Fallon. When I navigate to the |.eyetv| file and |ls -l| I can see the |.edl| file does not exist.

    |total 11123360 -rw-r--r-- 1 user staff 1371 Apr 27 23:39 000000001cd175cd.eyetvp -rw-r--r-- 1 user staff 285440 Apr 27 23:39 000000001cd1bbec.eyetvi -rw-r--r-- 1 user staff 2364 May 6 06:53 000000001cd1bbec.eyetvr -rw-r--r-- 1 user staff 99717 May 5 19:40 000000001cd1bbec.log -rw-r--r-- 1 user staff 11443 Apr 27 23:39 000000001cd1bbec.logo.txt -rw-r--r-- 1 user staff 5688542916 Apr 27 23:39 000000001cd1bbec.mpg -rw-r--r-- 1 user staff 159802 May 6 06:53 000000001cd1bbec.thumbnail.tiff -rw-r--r-- 1 user staff 6015714 May 6 06:53 000000001cd1bbec.tiff -rw-r--r-- 1 user staff 0 Apr 27 23:39 000000001cd1bbec.txt |

    Running comskip from the command line

    |/Library/Application\ Support/ETVComskip/bin/comskip --ini=/Library/Application\ Support/ETVComskip/comskip.ini 000000001cd1bbec.mpg | Returns

    |Setting ini file to /Library/Application Support/ETVComskip/comskip.ini as per commandline Using /Library/Application Support/ETVComskip/comskip.ini for initiation values. Mpeg: 000000001cd1bbec.mpg Exe comskip.exe Logo: 000000001cd1bbec.logo.txt Ini: /Library/Application Support/ETVComskip/comskip.ini Detection Methods to be used: 1) Black Frame 2) Logo - Give up after 2000 seconds 3) Scene Change 4) Resolution Change 5) Closed Captions 6) Aspect Ratio 7) Silence ComSkip throttles back from -0001 to -0001. The time is now 0656 so it's full speed ahead! Settings -------- [Main Settings] ;the sum of the values for which kind of frames comskip will consider as possible cutpoints: 1=uniform (black or any other color) frame, 2=logo, 4=scene change, 8=resolution change, 16=closed captions, 32=aspect ration, 64=silence, 255=all. detect_method=127 ;Set to 10 to show a lot of extra info, level 5 is also OK, set to 0 to disable verbose=10 ;Frame not black if any of the pixels of the frame has a brightness greater than this (scale 0 to 255) max_brightness=60 maxbright=1 ;Frame not pure black if a small number of the pixels of the frame has a brightness greater than this. To decide if the frame is truly black, comskip will also check average brightness (scale 0 to 255) test_brightness=40 ; max_avg_brightness=25 ; max_commercialbreak=600 ; min_commercialbreak=25 ; max_commercial_size=125 ; min_commercial_size=4 ; min_show_segment_length=250 ; max_volume=500 ; max_silence=100 ; non_uniformity=500 [Detailed Settings] min_silence=12 noise_level=5 brightness_jump=200 fps=22 validate_silence=1 validate_uniform=1 validate_scenechange=1 global_threshold=1.05 disable_heuristics=4 [CPU Load Reduction] thread_count=4 hardware_decode=1 play_nice_start=-1 play_nice_end=-1 play_nice_sleep=2 [Input Correction] max_repair_size=200 ms_audio_delay=5 volume_slip=40 lowres=0 skip_b_frames=0 [Aspect Ratio] ar_delta=0.08 cut_on_ar_change=1 [Global Removes] padding=0 remove_before=0 remove_after=0 added_recording=14 delete_show_after_last_commercial=0 delete_show_before_first_commercial=0 delete_show_before_or_after_current=0 delete_block_after_commercial=0 min_commercial_break_at_start_or_end=39 always_keep_first_seconds=0 always_keep_last_seconds=0 [USA Specific] intelligent_brightness=1 black_percentile=0.0076 uniform_percentile=0.003 score_percentile=0.71 [Main Scoring] length_strict_modifier=3 length_nonstrict_modifier=1.5 combined_length_strict_modifier=2 combined_length_nonstrict_modifier=1.25 ar_wrong_modifier=2 excessive_length_modifier=0.01 dark_block_modifier=0.3 min_schange_modifier=0.5 max_schange_modifier=2 logo_present_modifier=0.01 punish_no_logo=1 [Detailed Scoring] punish=0 reward=0 punish_threshold=1.3 punish_modifier=2 reward_modifier=0.5 [Logo Finding] border=10 give_up_logo_search=2000 delay_logo_search=0 logo_max_percentage_of_screen=0.12 ticker_tape=0 ticker_tape_percentage=0 ignore_side=0 subtitles=0 logo_at_bottom=1 logo_threshold=0.75 logo_percentage_threshold=0.25 logo_filter=0 aggressive_logo_rejection=0 edge_level_threshold=5 edge_radius=2 edge_weight=10 edge_step=1 num_logo_buffers=50 use_existing_logo_file=1 two_pass_logo=1 [Logo Interpretation] connect_blocks_with_logo=1 logo_percentile=0.92 logo_fraction=0.4 shrink_logo=5 shrink_logo_tail=0 before_logo=0 after_logo=0 where_logo=0 min_black_frames_for_break=1 [Closed Captioning] ccCheck=0 cc_commercial_type_modifier=4 cc_wrong_type_modifier=2 cc_correct_type_modifier=0.75 [Live TV] live_tv=0 live_tv_retries=0 require_div5=0 div5_tolerance=-1 incommercial_frames=1000 [Output Control] output_default=1 output_chapters=0 output_plist_cutlist=0 output_zoomplayer_cutlist=0 output_zoomplayer_chapter=0 output_vcf=0 output_vdr=0 output_projectx=0 output_avisynth=0 output_videoredo=0 output_videoredo3=0 videoredo_offset=2 output_btv=0 output_edl=1 output_live=0 edl_offset=0 timeline_repair=1 edl_skip_field=0 output_edlp=0 output_bsplayer=0 output_edlx=0 output_cuttermaran=0 output_mpeg2schnitt=0 output_womble=0 output_mls=0 output_mpgtx=0 output_dvrmstb=0 output_dvrcut=0 output_ipodchap=0 output_framearray=0 output_debugwindow=0 output_tuning=0 output_training=0 output_false=0 output_aspect=0 output_demux=0 output_data=0 output_srt=0 output_smi=0 output_timing=0 output_incommercial=0 output_ffmeta=0 output_ffsplit=0 delete_logo_file=0 cutscene_frame=0 cutscene_threshold=10 windowtitle="Comskip - %s" cuttermaran_options="cut=\"true\" unattended=\"true\" muxResult=\"false\" snapToCutPoints=\"true\" closeApp=\"true\"" mpeg2schnitt_options="mpeg2schnitt.exe /S /E /R25 /Z %2 %1" avisynth_options="LoadPlugin(\"MPEG2Dec3.dll\") \nMPEG2Source(\"%s\")\n" dvrcut_options="dvrcut \"%s.dvr-ms\" \"%s_clean.dvr-ms\" " [Sage Workarounds] sage_framenumber_bug=0 sage_minute_bug=0 enable_mencoder_pts=0 The logo mask file exists. Using 000000001cd1bbec.logo.txt for logo data. 01234567890123456789012345678901234567890123456789012345678901234567890123456789012345678901234567890123 926: 927: 928: 929: 930: -- ------ 931: -- ---------- 932: ---++--------- ----- 933: -+-||---- ----+ ----+--+++++++ 934: --++++------- || --|+++----++++++| 935: |++-+| - ----+++| +++++-- ++++++ 936: ||++++ | ||| |++++ -++|||| 937: ||++++ ++++|||+++- | ||++|| 938: |+++| |||+||++++- |||||| 939: ||||+ |++||+++| |||||| 940: ||||| ||+|||+|+- |||||| 941: |||+| |||||++-+ |||||| 942: ----- -- ||+|| ||||||++-+- |||||| 943: ----- ||++|| |||||-+-++- | |||||| -------- 944: -+++++-+|-+||+|++| ||||||-++++|| ||++| ------------ 945: ++++++ || ||||+-+| | |||||++++++| |++||++++++++++--+- 946: ++++++- | ||++|+| |||||||++++- |+++++++++---++++++| 947: |+++++ |||++-+| ||||||+++ |+|++++++- --+++++| 948: ||++++ | |++++++| |||||||+++ | |++++++- +++++| 949: |++++ | |||++++| |||||||+|| | ||++++++ |+++|| 950: ||+++| |++++++ | ||++|||+|| | ||++++++| ++++| 951: ||++||| ||+++++| |||||||+|| | ||++++++| |+++| | 952: ||+|| | |+++++| |||||||+|| | |+||+++ - ++|| 953: ||||| | |++++++ |||||||+|| | ||++++++ |||| 954: ||||| | ||+++++| ||||||||+|| |+++|++| | ||||| 955: ||+|| | |+++++|| |||||||||+|| |++++++| | |||| | 956: ||+|| |++++|| |||||| ||+|| | ||+++|+| ||||| 957: |+++| |+++++| ||||| ||+|| | ||+++++| ||+|| 958: |+||- |++++++ ||||| ||+|| |+++++| |++| 959: ||++|- |+++++| ||||| ||+|| | |++++++| +++|| 960: |+++++ |++ +++ ||||| |||| |+++++| |+++|| 961: |||+++- ||++++| ||+|| |++|| ++++++| -++++++ 962: - -+-++- ||++|++| |||+|| ||+|| |++|+++| -|++++- 963: -------++++++- |||+|++| |||||| |++|| ||+++++| ++|++++---- 964: ---+++- -----+++ |++|++| |||+| |++|| | +++++++- -+++++-------- 965: +++++++-++|++-++++ |+|++|| ||||| |++|| ||++++++- +++++-+++---++-- 966: ++++++----++++++---+- |+++++| ||+|| ||++|| |+++++| -+++-++++++--++++++ 967: ++++++- -||+++++-+- |++++++ ||||| ||++|||++++++ --++++++++++----+++++- 968: |+++++ --|++++++++- |+++++|||+|| ||++||++++++| -++++++++++- -++++| 969: |++++ -+++++++++- |++++++||||| ||+||++++++| | -+++++++++++- +++++| 970: ||++| | ++++++++++ ||+++++||||| ||+||+++++| | -+++++++++-- |+++| 971: |+++| | -++++++++++ |++|++||||| |||+++++++| --+|++++++++- +++|| 972: |+++| -++++++++++- |+++++|||| ||+++++++|-| ++++++++++- |++|| 973: ||+|| -+++++++++ |+++-+|||| |||++|+++|-+++++++++++- ||+|| 974: | | | -+++++++++-||+++++||| ||++++++|++++-+++++++ ||||| 975: |||| -+++++++++++++++||| |+++|+++++++++++++- ||||| 976: ||+-| -+++++++++++|++ ||++++++++++++++- |||||| 977: |+++| +++++++++++|+| -+||++++++++++- ||+||| 978: |++|+ -+++++++++||| |+||+++++++++ |++|| 979: |+|++ -++++++--+|| |+|++++++++- |+++|| 980: |||+++ -+++++-- ||++-+++++-| -++++|| 981: +|+++-- - ++++++ ||++++++ -+++++| 982: |+++++----------------------------+++|| -++++++- ------------------------+-++++- 983: -+++++----------------------------+++|| ||++++- -----------------------+++++++ 984: ---+-------------------------------- ||++++---- ----- -----------------+++++ 985: ------------------------------------ | ------ ---------------------------- 986: -------------------- - --- - --------------------------------------------- 987: ------------- --------------- --- --- ---------------- 988: -+++++----++++++- --+++++--+++++++ --++++-----+++++- 989: |++++++----+++++++ ++++++++---+++++++- -+++++-----+++++++-- 990: +++++---------++++++- ++++++--------+++++++ ++++++----------++++- 991: ++++++++++-+++++++|+++ ++++++++++--+++++++++++ +++++++++++-++++-+++++ 992: ++++++++++----++++++++++| ++++++++-------++++++++++ |++++++++------+++++++++| 993: |+++++++---------+++++++++| +++++++++--------+++++++++| |++++++++--- ----+++++++++| 994: |+++++++--- -++++++++|| |++++++++-- ++++++++|| |++++++++ -+++++++| 995: |+++++++ -+++++++|| |+++++++ +++++++|| |+++++++- ++++++++| 996: |+++++++ +++++++| ||++++++| ++++++++ | ++++++ +++++++| 997: |++++++ ++++++++++++|++ +++|+++|+ ++|++| ++++++|| 998: ||+++++| |++|+-+++++||++ |++|++-|+-+||++ +++++|| 999: ||++|++| +++|+++++++|+++- ++++++- +++|+++- |++|+|| 1000: |||||||| -+++||-+---+||+++- -++++|-+---+||+++- ||+|||| 1001: ||||||| -++++|------ |||+++- ++++++ ----- ||+++++ ||+|||| 1002: ||||||| -|++++||++-++| ++++++ ++++++-|+++++| -+++++| ||||||| 1003: ||+|||| +++++--|+++++++| +-+++++ +++++--+|+++++||---+++++ ||+|+|| 1004: ||++|+| |+++++++||++++++||+++|+++| ++++++++||++||++| +-+++++| ||+|+|| 1005: ||+|||+| |++++++++++++||+||-++++++++| |++++++++|+ +||++||++++++++| ||+|+|| 1006: ||++|+++ ||++++++++|++|||++|+++++++++| |++++++++|+-+||++++++++++++| +++++|| 1007: |+++||+ |++++++++|+++| ||++++++++++||| |++++++++++++| ||+++++++++++|| -+++++| 1008: |++++++++- |++++++++++++| ||+++++++++|+|| ||+++++++++++| |++++++++|+++| +++++++ 1009: |++++++++- ||++|++++++++| |+++++++++|+||||++|++++++++|| |++++++++++++| -+++++++| 1010: |++++++++++- |+++|++++++++| |+++++++++|+||||+||++++++++| |++++++++|+++ --++++++++- 1011: |++++++++++--+++||++++++++ |+++++++-|+++++++||+-+++++| |+++++-+-||+++--+++++++++| 1012: ++++++++++-++++| -+++++| ++++++- |++++++| -+++++- |+++++--||++++++-++++++|| 1013: +++++------++- -++++-+ -----+-||++++-|-++++++- ++++++-||+----+-+++++ 1014: +++++--------||+++++ +++++||------||++++| -+++++| +-----+++--- 1015: -++++------|+++- -++++|+|----++++-- -+++|+++--+++++++ 1016: -------+++|+++- -+++|+++++++|+++ +++|+++-------- 1017: -----++++|++ |+||++++++||++| |++|+++------ 1018: -++++++++| |++|+|+++|++|+++ ++++++|-- 1019: |+++++++ +++++++ |++++++| |+++++++ 1020: |+++++++-- -++++++|| |++++++++- +++++++| 1021: +++++|+++- -++++++++ |++++++++-- -++++++++| 1022: +++++|++++------+++++++++| |+++++++++--------+++++++++ 1023: |+++++++++-+----+++++++++ |++++-+-+------++++++|+++ 1024: +++++++-----++++++++++- ++++++-------+-++++++++ 1025: ++++++--------+++++++ +++++++-------+++++++| 1026: -++++--------+++++- --++--------+++++-+ 1027: --+++++---+-++---- ----------++++--- 1028: ------------- ------------- 1029: --------- -------- 1030: 1031: 1032: 1033: The last frame found in 000000001cd1bbec.txt was 0 [mpeg2video @ 0x7fa57a009600] Invalid frame dimensions 0x0. [mpeg2video @ 0x7fa57a009600] Invalid frame dimensions 0x0. [mpegts @ 0x7fa57a806a00] PES packet size mismatch [mpegts @ 0x7fa57a806a00] PES packet size mismatch [mpegts @ 0x7fa57a806a00] PES packet size mismatch Input #0, mpegts, from '000000001cd1bbec.mpg': Duration: 01:06:00.15, start: 4410.244778, bitrate: 11491 kb/s Program 3 Stream

    0:0[0x31]: Video: mpeg2video (Main) ([2][0][0][0] / 0x0002),

    yuv420p(tv), 1920x1080 [SAR 1:1 DAR 16:9], Closed Captions, max. 80000 kb/s, 29.97 fps, 29.97 tbr, 90k tbn, 59.94 tbc Stream #0:10x34: Audio: ac3 (AC-3 / 0x332D4341), 48000 Hz, 5.1(side), fltp, 384 kb/s Stream #0:20x35: Audio: ac3 (AC-3 / 0x332D4341), 48000 Hz, stereo, fltp, 192 kb/s (visual impaired) Program 4 Program 5 Initial pts = 0.167 Frame Rate set to 29.970 f/s Frame: 1 Ratio: 1.92 MinY: 1 MaxY: 1002 MinX: 1 MaxX: 1920 [ac3 @ 0x7fa57a009c00] exponent out-of-range [ac3 @ 0x7fa57a009c00] error decoding the audio block overread 30 [mpeg2video @ 0x7fa57a009600] Warning MVs not available [mpeg2video @ 0x7fa57a009600] 00 motion_type at 7 60 [mpeg2video @ 0x7fa57a009600] 00 motion_type at 109 59 [mpeg2video @ 0x7fa57a009600] 00 motion_type at 8 61 [mpeg2video @ 0x7fa57a009600] 00 motion_type at 4 8 [mpeg2video @ 0x7fa57a009600] 00 motion_type at 2 62 [mpeg2video @ 0x7fa57a009600] 00 motion_type at 10 9 [mpeg2video @ 0x7fa57a009600] 00 motion_type at 0 63 [mpeg2video @ 0x7fa57a009600] 00 motion_type at 25 10 [mpeg2video @ 0x7fa57a009600] invalid mb type in B Frame at 2 64 [mpeg2video @ 0x7fa57a009600] 00 motion_type at 0 11 [mpeg2video @ 0x7fa57a009600] 00 motion_type at 1 65 [mpeg2video @ 0x7fa57a009600] 00 motion_type at 11 12 [mpeg2video @ 0x7fa57a009600] 00 motion_type at 0 66 [mpeg2video @ 0x7fa57a009600] 00 motion_type at 16 13 [mpeg2video @ 0x7fa57a009600] 00 motion_type at 0 67 [mpeg2video @ 0x7fa57a009600] 00 motion_type at 2 14 [mpeg2video @ 0x7fa57a009600] 00 motion_type at 1 15 [mpeg2video @ 0x7fa57a009600] invalid cbp 0 at 19 16 [mpeg2video @ 0x7fa57a009600] 00 motion_type at 25 17 [mpeg2video @ 0x7fa57a009600] 00 motion_type at 1 18 [mpeg2video @ 0x7fa57a009600] 00 motion_type at 0 19 [mpeg2video @ 0x7fa57a009600] 00 motion_type at 1 20 [mpeg2video @ 0x7fa57a009600] 00 motion_type at 7 21 [mpeg2video @ 0x7fa57a009600] 00 motion_type at 0 22 [mpeg2video @ 0x7fa57a009600] 00 motion_type at 1 23 [mpeg2video @ 0x7fa57a009600] 00 motion_type at 10 24 [mpeg2video @ 0x7fa57a009600] 00 motion_type at 0 25 [mpeg2video @ 0x7fa57a009600] 00 motion_type at 0 26 [mpeg2video @ 0x7fa57a009600] 00 motion_type at 2 27 [mpeg2video @ 0x7fa57a009600] skip with previntra [mpeg2video @ 0x7fa57a009600] 00 motion_type at 2 29 [mpeg2video @ 0x7fa57a009600] 00 motion_type at 0 30 [mpeg2video @ 0x7fa57a009600] 00 motion_type at 19 31 [mpeg2video @ 0x7fa57a009600] 00 motion_type at 1 32 [mpeg2video @ 0x7fa57a009600] 00 motion_type at 1 33 [mpeg2video @ 0x7fa57a009600] mb incr damaged [mpeg2video @ 0x7fa57a009600] 00 motion_type at 0 35 [mpeg2video @ 0x7fa57a009600] 00 motion_type at 4 36 [mpeg2video @ 0x7fa57a009600] 00 motion_type at 0 37 [mpeg2video @ 0x7fa57a009600] 00 motion_type at 0 38 [mpeg2video @ 0x7fa57a009600] 00 motion_type at 7 39 [mpeg2video @ 0x7fa57a009600] 00 motion_type at 0 40 [mpeg2video @ 0x7fa57a009600] 00 motion_type at 0 41 [mpeg2video @ 0x7fa57a009600] 00 motion_type at 0 42 [mpeg2video @ 0x7fa57a009600] 00 motion_type at 0 43 [mpeg2video @ 0x7fa57a009600] 00 motion_type at 3 44 [mpeg2video @ 0x7fa57a009600] 00 motion_type at 0 45 [mpeg2video @ 0x7fa57a009600] 00 motion_type at 0 46 [mpeg2video @ 0x7fa57a009600] 00 motion_type at 0 47 [mpeg2video @ 0x7fa57a009600] 00 motion_type at 18 48 [mpeg2video @ 0x7fa57a009600] 00 motion_type at 0 49 [mpeg2video @ 0x7fa57a009600] 00 motion_type at 9 50 [mpeg2video @ 0x7fa57a009600] 00 motion_type at 0 51 [mpeg2video @ 0x7fa57a009600] 00 motion_type at 0 52 [mpeg2video @ 0x7fa57a009600] 00 motion_type at 0 53 [mpeg2video @ 0x7fa57a009600] 00 motion_type at 3 54 [mpeg2video @ 0x7fa57a009600] 00 motion_type at 0 55 [mpeg2video @ 0x7fa57a009600] 00 motion_type at 1 56 [mpeg2video @ 0x7fa57a009600] 00 motion_type at 1 57 [mpeg2video @ 0x7fa57a009600] 00 motion_type at 0 58 [mpeg2video @ 0x7fa57a009600] 00 motion_type at 0 59 [mpeg2video @ 0x7fa57a009600] Warning MVs not available Frame: 62 Ratio: 1.78 MinY: 1 MaxY: 1080 MinX: 1 MaxX: 1920 Resizing cc text array to accomodate 101 cc text groups. Frame 1522 (50.751s) - Black frame because large scene change of 8, uniform 28252 Frame 1581 (52.719s) - Black frame because large scene change of 10, uniform 34093 Frame 2031 (67.734s) - Black frame with brightness of 16,uniform of 0 and volume of 733 Frame 2032 (67.768s) - Black frame because large scene change of 0, uniform 686 Frame 2062 (68.769s) - Black frame because large scene change of 2, uniform 43539 Frame 2722 (90.791s) - Black frame because large scene change of 13, uniform 8153 Frame 2872 (95.796s) - Black frame because large scene change of 3, uniform 2217 Frame 2928 (97.664s) - Black frame because large scene change of 0, uniform 1662 Frame 2929 (97.698s) - Black frame because large scene change of 0, uniform 567 Frame 2930 (97.731s) - Black frame with brightness of 16,uniform of 0 and volume of -1 Frame 2931 (97.764s) - Black frame with brightness of 16,uniform of 0 and volume of -1 Frame 2932 (97.798s) - Black frame with brightness of 16,uniform of 0 and volume of -1 Frame 2933 (97.831s) - Black frame with brightness of 16,uniform of 0 and volume of -1 Frame 2934 (97.864s) - Black frame with brightness of 16,uniform of 0 and volume of -1 Frame 2935 (97.898s) - Black frame with brightness of 16,uniform of 0 and volume of -1 Frame 2936 (97.931s) - Black frame with brightness of 16,uniform of 0 and volume of -1 Frame 2937 (97.965s) - Black frame with brightness of 16,uniform of 0 and volume of -1 Frame 2938 (97.998s) - Black frame with brightness of 16,uniform of 0 and volume of -1 Frame 2939 (98.031s) - Black frame with brightness of 16,uniform of 0 and volume of -1 Frame 2940 (98.065s) - Black frame with brightness of 16,uniform of 0 and volume of -1 Frame 2941 (98.098s) - Black frame with brightness of 16,uniform of 0 and volume of -1 Frame 2942 (98.131s) - Black frame with brightness of 16,uniform of 0 and volume of -1 Frame 2943 (98.165s) - Black frame with brightness of 16,uniform of 0 and volume of -1 Frame 2944 (98.198s) - Black frame with brightness of 16,uniform of 0 and volume of -1 Frame 2945 (98.231s) - Black frame with brightness of 16,uniform of 0 and volume of -1 Frame 2946 (98.265s) - Black frame with brightness of 16,uniform of 0 and volume of -1 Frame 2947 (98.298s) - Black frame with brightness of 16,uniform of 0 and volume of -1 Frame 2948 (98.332s) - Black frame with brightness of 16,uniform of 0 and volume of -1 Frame 2949 (98.365s) - Black frame with brightness of 16,uniform of 0 and volume of -1 Frame 2950 (98.398s) - Black frame with brightness of 16,uniform of 0 and volume of -1 Frame 2951 (98.432s) - Black frame with brightness of 16,uniform of 0 and volume of -1 Frame 2952 (98.465s) - Black frame with brightness of 16,uniform of 0 and volume of -1 Frame 2953 (98.498s) - Black frame with brightness of 16,uniform of 0 and volume of -1 Frame 2954 (98.532s) - Black frame with brightness of 16,uniform of 0 and volume of -1 Frame 2955 (98.565s) - Black frame with brightness of 16,uniform of 0 and volume of -1 Frame 2956 (98.599s) - Black frame with brightness of 16,uniform of 0 and volume of -1 Frame 2957 (98.632s) - Black frame with brightness of 16,uniform of 0 and volume of -1 Frame 2958 (98.665s) - Black frame with brightness of 16,uniform of 0 and volume of -1 Frame 2959 (98.699s) - Black frame with brightness of 16,uniform of 0 and volume of -1 Frame 2960 (98.732s) - Black frame with brightness of 16,uniform of 0 and volume of -1 Frame 2961 (98.765s) - Black frame with brightness of 16,uniform of 0 and volume of -1 Frame 2962 (98.799s) - Black frame with brightness of 16,uniform of 0 and volume of -1 Frame 2963 (98.832s) - Black frame with brightness of 16,uniform of 0 and volume of -1 Frame 2964 (98.865s) - Black frame with brightness of 16,uniform of 0 and volume of -1 Frame 2965 (98.899s) - Black frame with brightness of 16,uniform of 0 and volume of -1 Frame 2966 (98.932s) - Black frame with brightness of 16,uniform of 0 and volume of -1 Frame 2967 (98.966s) - Black frame with brightness of 16,uniform of 0 and volume of -1 Frame 2968 (98.999s) - Black frame with brightness of 16,uniform of 0 and volume of -1 Frame 2969 (99.032s) - Black frame with brightness of 16,uniform of 0 and volume of -1 Frame 2970 (99.066s) - Black frame with brightness of 16,uniform of 0 and volume of -1 Frame 2971 (99.099s) - Black frame with brightness of 16,uniform of 0 and volume of -1 Frame 2972 (99.132s) - Black frame with brightness of 16,uniform of 0 and volume of -1 Frame 2973 (99.166s) - Black frame with brightness of 16,uniform of 0 and volume of -1 Frame 2974 (99.199s) - Black frame with brightness of 16,uniform of 0 and volume of -1 Frame 2975 (99.232s) - Black frame with brightness of 16,uniform of 0 and volume of -1 Frame 2976 (99.266s) - Black frame with brightness of 16,uniform of 0 and volume of -1 Frame 2977 (99.299s) - Black frame with brightness of 16,uniform of 0 and volume of -1 Frame 2978 (99.333s) - Black frame with brightness of 16,uniform of 0 and volume of -1 Frame 2979 (99.366s) - Black frame with brightness of 16,uniform of 0 and volume of -1 Frame 2980 (99.399s) - Black frame with brightness of 16,uniform of 0 and volume of -1 Frame 2981 (99.433s) - Black frame with brightness of 16,uniform of 0 and volume of -1 XDS[2981]: 1 85 c8 45 8f 5e 0 0 0 0 0 XDS[2981]: V-Chip: 8 48 45 0 Frame 2982 (99.466s) - Black frame with brightness of 16,uniform of 0 and volume of -1 Frame 2983 (99.499s) - Black frame with brightness of 16,uniform of 0 and volume of -1 Frame 2984 (99.533s) - Black frame with brightness of 16,uniform of 0 and volume of -1 XDS[2990]: 1 4 a1 80 8f cb 0 0 0 0 0 XDS[2990]: Program Type: a3eb6b2 XDS[3082]: 1 83 54 ef 6e e9 67 68 f4 20 d3 XDS[3082]: Program Name: Tonight Show Jimmy Fallon Start logo cblock 0 frame 3277 Resizing cc text array to accomodate 201 cc text groups.c(541.00 fps), 4% XDS[10464]: 1 83 54 ef 6e e9 67 68 f4 20 d3 Abort trap: 6(430.00 fps), 8% |

    And then returns to the command line for next instruction. Because comskip never fully completes the .edl file is never created and MarkCommercials can't operate correctly.

    Below is a link to the |.eyetv| file which is simply a diretory with it's contents for you if necessary. The Tonight Show Starring Jimmy Fallon https://link.getsync.com/#f=Tonight%20Show%20Starring%20Jimmy%20Fallon&sz=0&t=1&s=P6LLH6M2ATGDBTCBHHQQN73R3R75WYQB&i=COY7DVKEOLFQCELGENDH5NQBOCTIK5IW2&v=2.3

    Thanks for your support

    — You are receiving this because you are subscribed to this thread. Reply to this email directly or view it on GitHub https://github.com/erikkaashoek/Comskip/issues/47

    点赞 评论 复制链接分享
  • weixin_39603357 weixin_39603357 4月前

    That worked. Why does turning off close caption detection fix the problem? I've found and included in the sync folder the crash reports related to the specific recording if they're helpful at all.

    点赞 评论 复制链接分享
  • weixin_39956451 weixin_39956451 4月前

    There is a bug in the CC data processing that causes a crash on Mac but not on PC so I can not reproduce. Erik.

    2016-05-12 14:09 GMT+02:00 mlcrow notifications.com:

    That worked. Why does turning off close caption detection fix the problem? I've found and included in the sync folder the crash reports related to the specific recording if they're helpful at all.

    — You are receiving this because you commented. Reply to this email directly or view it on GitHub https://github.com/erikkaashoek/Comskip/issues/47#issuecomment-218738176

    点赞 评论 复制链接分享

相关推荐